Классический форум-трекер
canvas not supported
Нас вместе: 4 073 218
Loading...

BBC: Конец света (4 сценария апокалипсиса) / End Day (2004) DVDRip


Страницы:  1, 2  След. 
 
RSS
Начать новую тему   Ответить на тему    Торрент-трекер NNM-Club -> Зарубежные TV-бренды -> BBC
Автор Сообщение
-=MC=- ®
Стаж: 12 лет 2 мес.
Сообщений: 186
Ratio: 3,526
Поблагодарили: 2703
100%
russia.gif
BBC: Конец света (4 сценария апокалипсиса) / End Day (2004) DVDRip
Жанр: Документальный

Описание фильма:
Ученые давно пришли к выводу, что апокалипсис более чем вероятен. Другое дело, что никто из них не может точно сказать, когда именно это произойдет. Новый фильм -катастрофа на основе гипотез современных экспертов при помощи сверхреалистичной компьютерном графики предлагает нам стать свидетелями четырех возможных вариантов апокалипсиса. Это и независящие от нас природные катаклизмы, типа невероятной силы цунами или гигантского метеорита, и такие, к которым приложил руку сам человек - неудачный научный эксперимент или разработка новейшего химического оружия.

Четыре трагических сценария, предсказанные учеными, оформлены в виде "документальных репортажей", что придает картине еще больший драматизм. Первый сюжет рассказывает, как огромная волна хоронит под собой Нью-Йорк. Главным героем второго сюжета стал метеорит, превративший Берлин в громадный кратер. В третьем сюжете неизвестный вирус проникает пассажирским рейсом в Великобританию, вызывая ПОГОЛОВНЫЙ мор всего живого. И, наконец, четвертый сюжет рассказывает, что может случиться, если слишком пытливые научные умы захотят воссоздать черную дыру в лабораторных условиях. Ну что, уважаемые телезрители? Как вы считаете, какой именно конец заслуживает наша цивилизация?

Продолжительность: 00:50
Видеокодек: DivX 5
Битрейт видео: 1641 кб/с
Размер кадра: 576 x 416
Качество видео: DVDRip

Аудиокодек: AC3
Битрейт аудио: 384 кб/с (CBR)
Перевод: Русский профессиональный дубляж
General
Complete name : konec_sveta BBC.avi
Format : AVI
Format/Info : Audio Video Interleave
File size : 702 MiB
Duration : 48mn 26s
Overall bit rate : 2 025 Kbps
Writing application : VirtualDubMod 1.5.10.2 (build 2540/release)
Writing library : VirtualDubMod build 2540/release

Video
ID : 0
Format : MPEG-4 Visual
Format settings, BVOP : 1
Format settings, QPel : No
Format settings, GMC : No warppoints
Format settings, Matrix : Default (H.263)
Muxing mode : Packed bitstream
Codec ID : DX50
Codec ID/Hint : DivX 5
Duration : 48mn 26s
Bit rate : 1 632 Kbps
Width : 576 pixels
Height : 416 pixels
Display aspect ratio : 1.385
Frame rate : 25.000 fps
Color space : YUV
Chroma subsampling : 4:2:0
Bit depth : 8 bits
Scan type : Progressive
Compression mode : Lossy
Bits/(Pixel*Frame) : 0.272
Stream size : 565 MiB (81%)
Writing library : DivX 5.2.1 (WaffleDay) (UTC 2004-09-08)

Audio
ID : 1
Format : AC-3
Format/Info : Audio Coding 3
Mode extension : CM (complete main)
Format settings, Endianness : Big
Codec ID : 2000
Duration : 48mn 26s
Bit rate mode : Constant
Bit rate : 384 Kbps
Channel(s) : 6 channels
Channel positions : Front: L C R, Side: L R, LFE
Sampling rate : 48.0 KHz
Bit depth : 16 bits
Compression mode : Lossy
Stream size : 133 MiB (19%)
Alignment : Split accross interleaves
Interleave, duration : 40 ms (1.00 video frame)
Interleave, preload duration : 500 ms
Скриншоты:
konec_sveta BBC.avi.torrent
 Торрент: Платиновая раздача  Зарегистрирован
 
Скачать


 Зарегистрирован:   27 Май 2007 22:43:55
 Размер:   702 MB  (
 Рейтинг:   4,7 (Голосов: 91)
 Поблагодарили:   275
 Проверка:   Оформление проверено модератором 01 Июл 2007 03:26:23
Как cкачать  ·  Как раздать  ·  Правильно оформить  ·  Поднять ратио!  

_________________
Интернет - это инструмент для мозга. Вроде молотка. Одни люди, если дать им молоток, могут с помощью него сделать что-нибудь позитивное, а другие начинают бегать по улицам и бить по головам мирных граждан. Вопрос подхода к жизни, не более.
-=MC=- ®
Стаж: 12 лет 2 мес.
Сообщений: 186
Ratio: 3,526
Поблагодарили: 2703
100%
russia.gif
Скачало 11 человек и не одного отзыва !? :недовольный:

_________________
Интернет - это инструмент для мозга. Вроде молотка. Одни люди, если дать им молоток, могут с помощью него сделать что-нибудь позитивное, а другие начинают бегать по улицам и бить по головам мирных граждан. Вопрос подхода к жизни, не более.
bomb
Стаж: 12 лет
Сообщений: 680
Ratio: 6,111
Поблагодарили: 1315
100%
Откуда: с нептуна
australia.gif
Не качал, но видел до этого.. фильм интересный .. очень даже ..
-=MC=- ®
Стаж: 12 лет 2 мес.
Сообщений: 186
Ratio: 3,526
Поблагодарили: 2703
100%
russia.gif
bomb
Неожиданный сюжет - "как мы все умрём"
и снято как "документальный репортаж"
Смотреть обязательно ВСЕМ!

_________________
Интернет - это инструмент для мозга. Вроде молотка. Одни люди, если дать им молоток, могут с помощью него сделать что-нибудь позитивное, а другие начинают бегать по улицам и бить по головам мирных граждан. Вопрос подхода к жизни, не более.
Valinor
Стаж: 12 лет 3 мес.
Сообщений: 186
Ratio: 0,491
Поблагодарили: 317
100%
ukraine.gif
Вопрос не в том случится это или нет, а в том когда это случится(с) Качать всем!
Zeva Enter
Гость
Прикольный фильм интересно узнать как мы здохним)))
-=MC=- ®
Стаж: 12 лет 2 мес.
Сообщений: 186
Ratio: 3,526
Поблагодарили: 2703
100%
russia.gif
Есть ещё теория, согласно которой вселенная расширяется (притом с ускорением).
Короче ВСЁ взорвётся.

_________________
Интернет - это инструмент для мозга. Вроде молотка. Одни люди, если дать им молоток, могут с помощью него сделать что-нибудь позитивное, а другие начинают бегать по улицам и бить по головам мирных граждан. Вопрос подхода к жизни, не более.
avax
Стаж: 12 лет 1 мес.
Сообщений: 40
Ratio: 14,642
33.71%
Откуда: Питер, я твой!!
russia.gif
ПОшел покупать лодку ))) с наводнением в Питере оочень вероятно )))

Очень красивый "документальный" фильм
muamr
Стаж: 11 лет 5 мес.
Сообщений: 45
Ratio: 6,169
Поблагодарили: 18
100%
Откуда: Николаев
ukraine.gif
Умилил такой нюанс: от волны по всему восточному побережью Штатов погибли тысячи, а от метеорита в Европе - МИЛЛИОНЫ.
Неполиткорректно как-то )))
HeWhoMust​NotBeName​d​
Стаж: 11 лет 9 мес.
Сообщений: 24
Ratio: 1,114
100%
ussr.gif
Смотрел как-то, понравилось... скачаю для коллекции.
А насчет вероятности сценария - вот запустят скоро большой адронный коллайдер в Швейцарии, тогда и проверим :шок:
AndreyTT
Стаж: 11 лет 10 мес.
Сообщений: 159
Ratio: 9,733
100%
Откуда: СПб
logo.gif
Смотрим!!! Нормуль
Dark_Eagle
Стаж: 11 лет 10 мес.
Сообщений: 187
Ratio: 9,32
Раздал: 1,914 TB
Поблагодарили: 660
100%
Откуда: Резекне
latvia.gif
Если мы за всё то время, что живём на Земле не сдохли, так не сдохним теперь уж точно...
Игаретта
Стаж: 11 лет 11 мес.
Сообщений: 67
Ratio: 14,419
100%
Откуда: Москва
russia.gif
Dark_Eagle писал(а):
Если мы за всё то время, что живём на Земле не сдохли, так не сдохним теперь уж точно...


о, да! Живучие мы твари!))) :смех:
kent22
Стаж: 11 лет 7 мес.
Сообщений: 83
Ratio: 1,501
Поблагодарили: 158
100%
russia.gif
Спасибо за раздачу.

А вот интересно, если сложить все вероятности "плохого исхода" для человека: задавило машиной, умер от рака, убило током, утонул и т.д ПЛЮС очень тяжёлые заболевания (вероятность ослепнуть, и т.д) ; то какая общая вероятность в год (т.е. например в РФ гибнет под колесами Х человек из общей численности страны в год, то вероятность погибнуть в год Х/140000000), что человек может умереть?
Ferrat
Стаж: 11 лет 2 мес.
Сообщений: 546
Ratio: 4,156
100%
Откуда: Северная Пальмира
ussr.gif
юхуху! :супер!: там есть адронный коллайдер!!! :поклоняется: когда же его запустят по настоящему?!!! :супер!:
Показать сообщения:   
Начать новую тему   Ответить на тему    Торрент-трекер NNM-Club -> Зарубежные TV-бренды -> BBC Часовой пояс: GMT + 3
Страницы:  1, 2  След.
Страница 1 из 2