Классический форум-трекер
canvas not supported
Нас вместе: 4 079 093

Pupo - Goodbye Is Not Forever (2008) [FLAC (track+.cue)|Lossless]<Pop, Italo Disco>


 
 
RSS
Начать новую тему   Ответить на тему    Торрент-трекер NNM-Club -> Pop -> Disco, Italo-Disco, Euro-Disco, Hi-NRG (Lossless)
Автор Сообщение
Delavar24 ®
Стаж: 10 лет 3 мес.
Сообщений: 1463
Ratio: 340,501
Раздал: 21,36 TB
Поблагодарили: 61678
100%
Откуда: 67RUS
ussr.gif
Pupo - Goodbye Is Not Forever (2008)
Год: 2008
Жанр: Pop, Italo Disco
Продолжительность: 00:49:56

Кодек: FLAC
Битрейт: Lossless
Тип раздачи: tracks+.cue
Наличие сканов в содержимом раздачи: да

Издатель (лейбл): Live Music Edizioni
Номер по каталогу: ZIT 20007-2

Треклист:
01. Non E Un Addio - Goodbye Is Not Forever (Duet With Robin Beck) (4:02)
02. Un Amore Grande (3:39)
03. Forse (3:30)
04. Firenze Santa Maria Novella (3:20)
05. La Terra Di Nessuno (3:57)
06. Giovanna (3:38)
07. Per Angela (3:52)
08. L'ultimo Amore (Duet With Petra Magoni) (3:38)
09. In Eternita (3:55)
10. Ritrovo Te (4:29)
11. Torna Presto (3:44)
12. L'angelo Postino (4:34)
13. E Fiorentina (3:40)
Код:
Exact Audio Copy V0.99 prebeta 4 from 23. January 2008

EAC extraction logfile from 10. July 2009, 22:27

Pupo / Goodbye Is Not Forever

Used drive  : TEAC    CD-W516EB   Adapter: 0  ID: 0

Read mode               : Secure
Utilize accurate stream : Yes
Defeat audio cache      : Yes
Make use of C2 pointers : No

Read offset correction                      : 685
Overread into Lead-In and Lead-Out          : No
Fill up missing offset samples with silence : Yes
Delete leading and trailing silent blocks   : No
Null samples used in CRC calculations       : Yes
Used interface                              : Installed external ASPI interface
Gap handling                                : Not detected, thus appended to previous track

Used output format              : User Defined Encoder
Selected bitrate                : 1024 kBit/s
Quality                         : High
Add ID3 tag                     : Yes
Command line compressor         : C:\Program Files\Flac\flac.exe
Additional command line options : -6 -V -T "ARTIST=%a" -T "TITLE=%t" -T "ALBUM=%g" -T "DATE=%y" -T "TRACKNUMBER=%n" -T "GENRE=%m" -T "COMMENT=%e" %s -o %d
Use compression offset          : 6

TOC of the extracted CD

     Track |   Start  |  Length  | Start sector | End sector
    ---------------------------------------------------------
        1  |  0:00.00 |  4:02.28 |         0    |    18177
        2  |  4:02.28 |  3:39.05 |     18178    |    34607
        3  |  7:41.33 |  3:30.15 |     34608    |    50372
        4  | 11:11.48 |  3:19.71 |     50373    |    65368
        5  | 14:31.44 |  3:57.01 |     65369    |    83144
        6  | 18:28.45 |  3:37.47 |     83145    |    99466
        7  | 22:06.17 |  3:52.21 |     99467    |   116887
        8  | 25:58.38 |  3:38.17 |    116888    |   133254
        9  | 29:36.55 |  3:54.64 |    133255    |   150868
       10  | 33:31.44 |  4:29.02 |    150869    |   171045
       11  | 38:00.46 |  3:44.10 |    171046    |   187855
       12  | 41:44.56 |  4:33.70 |    187856    |   208400
       13  | 46:18.51 |  3:39.69 |    208401    |   224894

Track  1

     Filename N:\EAC\sole-survivor\Pupo\01-Non E Un Addio - Goodbye Is Not Forever (Duet With Robin Beck).wav

     Peak level 98.1 %
     Track quality 100.0 %
     Copy CRC 93E661B9
     Accurately ripped (confidence 1)  [A3ECE6F1]
     Copy OK

Track  2

     Filename N:\EAC\sole-survivor\Pupo\02-Un Amore Grande.wav

     Peak level 97.9 %
     Track quality 100.0 %
     Copy CRC 9AECB38B
     Accurately ripped (confidence 1)  [F799DE91]
     Copy OK

Track  3

     Filename N:\EAC\sole-survivor\Pupo\03-Forse.wav

     Peak level 97.9 %
     Track quality 99.9 %
     Copy CRC A0BADBF8
     Accurately ripped (confidence 1)  [DE2421AF]
     Copy OK

Track  4

     Filename N:\EAC\sole-survivor\Pupo\04-Firenze Santa Maria Novella.wav

     Peak level 98.8 %
     Track quality 100.0 %
     Copy CRC EF52B0D1
     Accurately ripped (confidence 1)  [2F73E12F]
     Copy OK

Track  5

     Filename N:\EAC\sole-survivor\Pupo\05-La Terra Di Nessuno.wav

     Peak level 98.3 %
     Track quality 100.0 %
     Copy CRC F3867B59
     Accurately ripped (confidence 1)  [B02B9983]
     Copy OK

Track  6

     Filename N:\EAC\sole-survivor\Pupo\06-Giovanna.wav

     Peak level 97.8 %
     Track quality 100.0 %
     Copy CRC 26CE3E86
     Accurately ripped (confidence 1)  [2DCE2FD8]
     Copy OK

Track  7

     Filename N:\EAC\sole-survivor\Pupo\07-Per Angela.wav

     Peak level 98.8 %
     Track quality 100.0 %
     Copy CRC 6DFC3DBD
     Accurately ripped (confidence 1)  [3A20F2C8]
     Copy OK

Track  8

     Filename N:\EAC\sole-survivor\Pupo\08-L'ultimo Amore (Duet With Petra Magoni).wav

     Peak level 97.8 %
     Track quality 100.0 %
     Copy CRC 93DC4A87
     Accurately ripped (confidence 1)  [EB035F82]
     Copy OK

Track  9

     Filename N:\EAC\sole-survivor\Pupo\09-In Eternita.wav

     Peak level 98.8 %
     Track quality 100.0 %
     Copy CRC 88FBCE09
     Accurately ripped (confidence 1)  [738E3960]
     Copy OK

Track 10

     Filename N:\EAC\sole-survivor\Pupo\10-Ritrovo Te.wav

     Peak level 97.8 %
     Track quality 100.0 %
     Copy CRC 30FAF259
     Accurately ripped (confidence 1)  [13505F25]
     Copy OK

Track 11

     Filename N:\EAC\sole-survivor\Pupo\11-Torna Presto.wav

     Peak level 94.5 %
     Track quality 99.9 %
     Copy CRC 9FBFD945
     Accurately ripped (confidence 1)  [05A9E0BE]
     Copy OK

Track 12

     Filename N:\EAC\sole-survivor\Pupo\12-L'angelo Postino.wav

     Peak level 98.8 %
     Track quality 99.9 %
     Copy CRC BA6B3B8A
     Accurately ripped (confidence 1)  [489C8146]
     Copy OK

Track 13

     Filename N:\EAC\sole-survivor\Pupo\13-E Fiorentina.wav

     Peak level 98.8 %
     Track quality 100.0 %
     Copy CRC 4DBA5E78
     Accurately ripped (confidence 1)  [565C8371]
     Copy OK

All tracks accurately ripped

No errors occurred

End of status report
Код:
-----------------------

DON'T MODIFY THIS FILE

-----------------------

PERFORMER: auCDtect Task Manager, ver. 1.6.0 RC1 build 1.6.0.1
Copyright (c) 2008-2010 y-soft. All rights reserved
http://y-soft.org

ANALYZER: auCDtect: CD records authenticity detector, version 0.8.2
Copyright (c) 2004 Oleg Berngardt. All rights reserved.
Copyright (c) 2004 Alexander Djourik. All rights reserved.

FILE: 13-E Fiorentina.flac
  Size: 24002890 Hash: B2C35C9CD55818B723A232B37C1D4D68 Accuracy: -m0
  Conclusion: CDDA 100%
  Signature: 737C025781DF5E3112923D9E96622B381C5BB3DB
FILE: 12-L'angelo Postino.flac
  Size: 30913930 Hash: 1FC1852B1D7B4174B37CEA139CA9D080 Accuracy: -m0
  Conclusion: CDDA 100%
  Signature: 6D2A73CB4A9EAF6E4F85E3D8530BDF6371AD3C0D
FILE: 11-Torna Presto.flac
  Size: 26680106 Hash: AEEED9AED8FD1B89628DD5777826D433 Accuracy: -m0
  Conclusion: CDDA 100%
  Signature: C3CCD5367892B4A1534FE869C820E1E9FBA01D2D
FILE: 10-Ritrovo Te.flac
  Size: 32278693 Hash: 5F00E8FB075149A971D320425605880D Accuracy: -m0
  Conclusion: CDDA 100%
  Signature: 08A7B47FF5B98CC01409FE42C3C0840AD8A9998E
FILE: 09-In Eternita.flac
  Size: 29164344 Hash: C299A106CCBBAFA083625EDBD437D182 Accuracy: -m0
  Conclusion: CDDA 100%
  Signature: A644AFCBB5C32EE870E898740D347F170D599FDA
FILE: 08-L'ultimo Amore (Duet With Petra Magoni).flac
  Size: 25995224 Hash: A844826B6E2010D2886A300B16CDBEA6 Accuracy: -m0
  Conclusion: CDDA 100%
  Signature: 254533C385159CFBA5BDA500032C4CE781441C73
FILE: 07-Per Angela.flac
  Size: 30191845 Hash: 8A75463F8CD052E6A195C5C1A4B343D5 Accuracy: -m0
  Conclusion: CDDA 99%
  Signature: 0AD0451E03F9C71472545821C76244805E95E119
FILE: 06-Giovanna.flac
  Size: 29025633 Hash: EF054E6A0B78F9DD950B564C168BD178 Accuracy: -m0
  Conclusion: CDDA 100%
  Signature: CFF5FF79E4AECEEEF687C116D0A6CD4FCB038AA5
FILE: 05-La Terra Di Nessuno.flac
  Size: 30789547 Hash: 55C69AA4DEC39152BF1D65F3198D3829 Accuracy: -m0
  Conclusion: CDDA 100%
  Signature: F627B9FF882BB472498E8D52A83B10BD3065A7D7
FILE: 04-Firenze Santa Maria Novella.flac
  Size: 23504210 Hash: 92C022D886DE45E834A26E59BCC844A3 Accuracy: -m0
  Conclusion: CDDA 100%
  Signature: 352B98DFCA19029B44C77DDCED71525089103567
FILE: 03-Forse.flac
  Size: 25975070 Hash: 35D1D12A06A03F0542C3C0E807460FCF Accuracy: -m0
  Conclusion: CDDA 100%
  Signature: D64B7E2BCC3690BEB291EE528DDE370888A40D12
FILE: 02-Un Amore Grande.flac
  Size: 27644200 Hash: C1103B7BC62EB2199F274A8C3CFC59DA Accuracy: -m0
  Conclusion: CDDA 100%
  Signature: 5B59F5BF2764B17939B2CE777701A419B0F45D0D
FILE: 01-Non E Un Addio - Goodbye Is Not Forever (Duet With Robin Beck).flac
  Size: 31327484 Hash: 6A2632BFB6265E4707ACFBE6C335D2C9 Accuracy: -m0
  Conclusion: CDDA 100%
  Signature: 132B664EB9B4ACF0FD19D2118A332C9806CE9F7E
Код:
REM GENRE Pop
REM DATE 2008
REM DISCID A10BB60D
REM COMMENT "ExactAudioCopy v0.99pb4"
PERFORMER "Pupo"
TITLE "Goodbye Is Not Forever"
FILE "01-Non E Un Addio - Goodbye Is Not Forever (Duet With Robin Beck).wav" WAVE
  TRACK 01 AUDIO
    TITLE "Non E Un Addio - Goodbye Is Not Forever (Duet With Robin Beck)"
    PERFORMER "Pupo"
    FLAGS DCP
    INDEX 01 00:00:00
  TRACK 02 AUDIO
    TITLE "Un Amore Grande"
    PERFORMER "Pupo"
    FLAGS DCP
    INDEX 00 04:00:28
FILE "02-Un Amore Grande.wav" WAVE
    INDEX 01 00:00:00
  TRACK 03 AUDIO
    TITLE "Forse"
    PERFORMER "Pupo"
    FLAGS DCP
    INDEX 00 03:38:05
FILE "03-Forse.wav" WAVE
    INDEX 01 00:00:00
  TRACK 04 AUDIO
    TITLE "Firenze Santa Maria Novella"
    PERFORMER "Pupo"
    FLAGS DCP
    INDEX 00 03:28:15
FILE "04-Firenze Santa Maria Novella.wav" WAVE
    INDEX 01 00:00:00
  TRACK 05 AUDIO
    TITLE "La Terra Di Nessuno"
    PERFORMER "Pupo"
    FLAGS DCP
    INDEX 00 03:18:71
FILE "05-La Terra Di Nessuno.wav" WAVE
    INDEX 01 00:00:00
  TRACK 06 AUDIO
    TITLE "Giovanna"
    PERFORMER "Pupo"
    FLAGS DCP
    INDEX 00 03:55:01
FILE "06-Giovanna.wav" WAVE
    INDEX 01 00:00:00
  TRACK 07 AUDIO
    TITLE "Per Angela"
    PERFORMER "Pupo"
    FLAGS DCP
    INDEX 00 03:36:47
FILE "07-Per Angela.wav" WAVE
    INDEX 01 00:00:00
  TRACK 08 AUDIO
    TITLE "L'ultimo Amore (Duet With Petra Magoni)"
    PERFORMER "Pupo"
    FLAGS DCP
    INDEX 00 03:51:21
FILE "08-L'ultimo Amore (Duet With Petra Magoni).wav" WAVE
    INDEX 01 00:00:00
  TRACK 09 AUDIO
    TITLE "In Eternita"
    PERFORMER "Pupo"
    FLAGS DCP
    INDEX 00 03:36:17
FILE "09-In Eternita.wav" WAVE
    INDEX 01 00:00:00
  TRACK 10 AUDIO
    TITLE "Ritrovo Te"
    PERFORMER "Pupo"
    FLAGS DCP
    INDEX 00 03:52:64
FILE "10-Ritrovo Te.wav" WAVE
    INDEX 01 00:00:00
FILE "11-Torna Presto.wav" WAVE
  TRACK 11 AUDIO
    TITLE "Torna Presto"
    PERFORMER "Pupo"
    FLAGS DCP
    INDEX 01 00:00:00
  TRACK 12 AUDIO
    TITLE "L'angelo Postino"
    PERFORMER "Pupo"
    FLAGS DCP
    INDEX 00 03:43:10
FILE "12-L'angelo Postino.wav" WAVE
    INDEX 01 00:00:00
FILE "13-E Fiorentina.wav" WAVE
  TRACK 13 AUDIO
    TITLE "E Fiorentina"
    PERFORMER "Pupo"
    FLAGS DCP
    INDEX 01 00:00:00
Время раздачи:24/5 (до 5 раздающих)


Поглощение/вытеснение
Только с согласия релизера

DesideriuM

Реставрация релиза: DesideriuM
[NNM-Club.ru]_Pupo - Goodbye Is Not Forever (2008).torrent
 Торрент: Платиновая раздача  Зарегистрирован
 
Скачать


 Зарегистрирован:   14 Дек 2009 01:52:05
 Размер:   383 MB  (
 Рейтинг:   4,9 (Голосов: 16)
 Поблагодарили:   58
 Проверка:   Оформление проверено модератором 14 Дек 2009 02:51:22
Как cкачать  ·  Как раздать  ·  Правильно оформить  ·  Поднять ратио!  
Загрузка...
Uri_km
Стаж: 10 лет 3 мес.
Сообщений: 17
Ratio: 4,784
100%
Откуда: Khm
ussr.gif
Спасибо. Думал что Pupo уже не выпускает новых альбомов.

_________________
Показать сообщения:   
Начать новую тему   Ответить на тему    Торрент-трекер NNM-Club -> Pop -> Disco, Italo-Disco, Euro-Disco, Hi-NRG (Lossless) Часовой пояс: GMT + 3
Страница 1 из 1