Классический форум-трекер
canvas not supported
Нас вместе: 4 078 891

Cerrone - X-XEX (1993) [WavPack|Lossless]<Disco>


 
 
RSS
Начать новую тему   Ответить на тему    Торрент-трекер NNM-Club -> Pop -> Disco, Italo-Disco, Euro-Disco, Hi-NRG (Lossless)
Автор Сообщение
cyberSkin ®
Стаж: 9 лет 9 мес.
Сообщений: 34
Ratio: 8,884
Поблагодарили: 708
77.87%
Cerrone - X-XEX (1993)
Год: 1993
Жанр: Disco
Продолжительность: 00:53:57

Кодек: WavPack
Битрейт: Lossless

Трек лист:
1. X-Xex (Marc Cerrone, Gary Hughes, Halstead Mitchell) 5:06
2. Loved & Be Loved (Marc Cerrone, Raphael Abitbol) 4:05
3. You - Him - Me (Marc Cerrone, Gary Hughes, Halstead Mitchell) 4:43
4. Do You Like Watching (Marc Cerrone, Gary Hughes, Halstead Mitchell) 4:42
5. Yes I Like Watching (Marc Cerrone) 3:56
6. Woman in love (Marc Cerrone, Gary Hughes, Halstead Mitchell) 4:39
7. Fragance Of You (Marc Cerrone, Gary Hughes, Halstead Mitchell) 4:48
8. Cry For Freedom (Marc Cerrone, Gary Hughes, Halstead Mitchell) 5:02
9. It's Rap (Marc Cerrone, Gary Hughes, Halstead Mitchell) 3:56
10. Oh Johnny (Marc Cerrone, Gary Hughes, Halstead Mitchell) 4:41
11. Perfect Circle (Marc Cerrone, Gary Hughes, Halstead Mitchell) 5:17
12. X-Xex (Reprise) (Marc Cerrone, Gary Hughes, Halstead Mitchell) 2:41
Код:
Exact Audio Copy V0.99 prebeta 3 from 28. July 2007

EAC extraction logfile from 6. March 2008, 12:40

Cerrone / X-XEX

Used drive  : _NEC    DVD_RW ND-3540A   Adapter: 1  ID: 1

Read mode               : Secure
Utilize accurate stream : Yes
Defeat audio cache      : Yes
Make use of C2 pointers : No

Read offset correction                      : 48
Overread into Lead-In and Lead-Out          : No
Fill up missing offset samples with silence : Yes
Delete leading and trailing silent blocks   : No
Null samples used in CRC calculations       : Yes
Used interface                              : Installed external ASPI interface

Used output format : Internal WAV Routines
Sample format      : 44.100 Hz; 16 Bit; Stereo

TOC of the extracted CD

     Track |   Start  |  Length  | Start sector | End sector
    ---------------------------------------------------------
        1  |  0:00.00 |  5:07.17 |         0    |    23041
        2  |  5:07.17 |  4:06.20 |     23042    |    41511
        3  |  9:13.37 |  4:44.68 |     41512    |    62879
        4  | 13:58.30 |  4:44.55 |     62880    |    84234
        5  | 18:43.10 |  3:56.55 |     84235    |   101989
        6  | 22:39.65 |  4:41.00 |    101990    |   123064
        7  | 27:20.65 |  4:50.57 |    123065    |   144871
        8  | 32:11.47 |  5:04.00 |    144872    |   167671
        9  | 37:15.47 |  3:57.73 |    167672    |   185519
       10  | 41:13.45 |  4:42.72 |    185520    |   206741
       11  | 45:56.42 |  5:19.00 |    206742    |   230666
       12  | 51:15.42 |  2:43.35 |    230667    |   242926
       13  | 53:59.02 |  6:11.40 |    242927    |   270791
       14  | 60:10.42 |  4:36.08 |    270792    |   291499
       15  | 64:46.50 |  4:18.47 |    291500    |   310896
       16  | 69:05.22 |  3:45.13 |    310897    |   327784
       17  | 72:50.35 |  6:07.55 |    327785    |   355364

Range status and errors

Selected range

     Filename E:\Music\Archive\Cerrone - X-XEX.wav

     Peak level 100.0 %
     Range quality 99.9 %
     Test CRC 3656DBCA
     Copy CRC 3656DBCA
     Copy OK

No errors occurred

End of status report
Код:
AUDIOCHECKER v2.0 beta (build 457) - by Dester - opdester@freemail.hu
~~~~~~~~~~~~~~~~~~~~~~~~~~~~~~~~~~
-=== НЕ РЕДАКТИРУЙТЕ ЭТОТ ФАЙЛ! ===-

Путь: ...\Cerrone - X-XEX (1993)[WV]

1 -=- Cerrone - X-XEX (1993).wav -=- CDDA (100%)

267224372
Время раздачи: 24/7


Поглощение/вытеснение
Только с согласия релизера

DesideriuM

Реставрация от: Алинна11
[NNM-Club.ru]_Cerrone - X-XEX 1995.torrent
 Торрент: Платиновая раздача  Зарегистрирован
 
Скачать


 Зарегистрирован:   07 Янв 2010 17:11:12
 Размер:   351 MB  (
 Рейтинг:   4,8 (Голосов: 12)
 Поблагодарили:   57
 Проверка:   Оформление проверено модератором 07 Янв 2010 23:27:34
Как cкачать  ·  Как раздать  ·  Правильно оформить  ·  Поднять ратио!  
Загрузка...
VirusBIN
Сталкер
Стаж: 11 лет 9 мес.
Сообщений: 28820
Ratio: 54,501
Поблагодарили: 9508
100%
Откуда: Beverly Восточное
witch.png
cyberSkin
Добавьте номера треков и отчет чекера.

_________________
Правила раздела :: Сделать треклист :: auCDtect Task Manager :: TagScanner :: EAC :: CUE
Google: «Скорее всего, на картинке девушка с шампанским»
cyberSkin ®
Стаж: 9 лет 9 мес.
Сообщений: 34
Ratio: 8,884
Поблагодарили: 708
77.87%
VirusBIN
:смущение:
VirusBIN
Сталкер
Стаж: 11 лет 9 мес.
Сообщений: 28820
Ratio: 54,501
Поблагодарили: 9508
100%
Откуда: Beverly Восточное
witch.png
cyberSkin
Другое дело. Но пробелы не забывайте ставить ;) Да и людей в скобках желательно делать серым, что бы не смешивались с трек-листом.

_________________
Правила раздела :: Сделать треклист :: auCDtect Task Manager :: TagScanner :: EAC :: CUE
Google: «Скорее всего, на картинке девушка с шампанским»
Показать сообщения:   
Начать новую тему   Ответить на тему    Торрент-трекер NNM-Club -> Pop -> Disco, Italo-Disco, Euro-Disco, Hi-NRG (Lossless) Часовой пояс: GMT + 3
Страница 1 из 1