Классический форум-трекер
canvas not supported
Нас вместе: 4 065 113

Спартак: кровь и песок / Spartacus: Blood and Sand (полностью первый сезон) (2010) [720p] HDTVRip [LostFilmTV]


Страницы:  1, 2, 3  След. 
 
RSS
Начать новую тему   Ответить на тему    Торрент-трекер NNM-Club -> Зарубежные сериалы
Автор Сообщение
54pioner54 ®
Стаж: 9 лет 1 мес.
Сообщений: 304
Ratio: 179,79
Поблагодарили: 5236
100%
Откуда: Nsk
cuba.gif
Спартак: кровь и песок / Spartacus: Blood and Sand
Год выпуска: 2010
Жанр: Драма, Приключения,Исторический

Описание:
Легенда о фракийском воине Спартаке, попавшем в рабство к римлянам, ставшим гладиатором и возглавившим одно из самых массовых восстаний рабов в Древнем Риме - известна всем ещё со школьной скамьи. Создатели сериала дают нам возможность вновь окунуться в атмосферу античности и помогают древней легенде буквально заиграть новыми красками, с применением новейших технологий кинематографии

Режиссер: Майкл Херст, Рик Джейкобсон, Джесси Уарн
Актеры: Ману Беннетт Питер Менса Ник Тарабэй Вива Скубижевски Джей Кортни Лесли-Энн Брандт Эрин Каммингс Энди Уитфилд Джон Ханна Крэйг Паркер

Продолжительность: 13 серий по ~ 00:54:00
Перевод: Многоголосый закадровый
Перевод: Relicit.
Редактор: DeadMan.
Озвучка: Студия "Kravec".
Релиз группа:
Дата мировой премьеры: 22.01.2010

Качество: HDTVRip 720p
Формат: MKV
Видео кодек: H.264
Аудио кодек: AC3
Видео: MPEG4 Video (H264) 1280x720 23.98fps 3459Kbps
Аудио Rus: Dolby AC3 48000Hz 6ch 384Kbps
Аудио Eng: Dolby AC3 48000Hz 6ch 384Kbps
Код: выделить все
Общее
Уникальный идентификатор                 : 170154975895615426222426304754971123313 (0x8002A8050188D3BAA4014C94BC151E71)
Полное имя                               : /Spartacus Blood and Sand/Spartacus.Blood.and.Sand.S01E01.720p.HDTV.X264.Rus.Eng.AC3.mkv
Формат                                   : Matroska
Версия формата                           : Version 2
Размер файла                             : 1,60 Гбайт
Продолжительность                        : 54 м. 15 с.
Общий поток                              : 4229 Кбит/сек
Дата кодирования                         : UTC 2010-01-25 23:22:59
Программа кодирования                    : mkvmerge v3.0.0 ('Hang up your Hang-Ups') built on Dec 12 2009 15:20:35
Библиотека кодирования                   : libebml v0.7.9 + libmatroska v0.8.1

Видео
Идентификатор                            : 2
Формат                                   : AVC
Формат/Информация                        : Advanced Video Codec
Профиль формата                          : High@L4.1
Настройки формата                        : CABAC / 5 Ref Frames
Параметр CABAC формата                   : Да
Параметр ReFrames формата                : 5 кадров
Идентификатор кодека                     : V_MPEG4/ISO/AVC
Продолжительность                        : 54 м. 15 с.
Битрейт                                  : 3459 Кбит/сек
Ширина                                   : 1280 пикселей
Высота                                   : 720 пикселей
Соотношение сторон                       : 16:9
Режим частоты кадров                     : Постоянный
Частота кадров                           : 23,976 (24000/1001) кадра/сек
Цветовое пространство                    : YUV
Субдискретизация насыщенности            : 4:2:0
Битовая глубина                          : 8 бит
Тип развёртки                            : Прогрессивная
Бит/(Пиксели*Кадры)                      : 0.157
Размер потока                            : 1,28 Гбайт (80%)
Библиотека кодирования                   : x264 core 80 r1376 3feaec2
Настройки программы                      : cabac=1 / ref=5 / deblock=1:-2:-1 / analyse=0x3:0x113 / me=umh / subme=8 / psy=1 / psy_rd=1.0:0.0 / mixed_ref=0 / me_range=16 / chroma_me=1 / trellis=1 / 8x8dct=1 / cqm=0 / deadzone=21,11 / fast_pskip=1 / chroma_qp_offset=-2 / threads=12 / sliced_threads=0 / nr=0 / decimate=1 / mbaff=0 / constrained_intra=0 / bframes=3 / b_pyramid=0 / b_adapt=1 / b_bias=0 / direct=1 / wpredb=1 / wpredp=2 / keyint=250 / keyint_min=25 / scenecut=40 / rc_lookahead=40 / rc=2pass / mbtree=1 / bitrate=3459 / ratetol=1.0 / qcomp=0.60 / qpmin=10 / qpmax=51 / qpstep=4 / cplxblur=20.0 / qblur=0.5 / ip_ratio=1.40 / aq=1:1.00
Язык                                     : English
Default                                  : Да
Forced                                   : Нет

Аудио #1
Идентификатор                            : 1
Формат                                   : AC-3
Формат/Информация                        : Audio Coding 3
Идентификатор кодека                     : A_AC3
Продолжительность                        : 54 м. 15 с.
Вид битрейта                             : Постоянный
Битрейт                                  : 384 Кбит/сек
Каналы                                   : 6 каналов
Расположение каналов                     : Front: L C R, Side: L R, LFE
Частота                                  : 48,0 КГц
Частота кадров                           : 31,250 кадров/сек (1536 SPF)
Битовая глубина                          : 16 бит
Метод сжатия                             : С потерями
Размер потока                            : 149 Мбайт (9%)
Заголовок                                : LostFilm.TV
Язык                                     : Russian
Service kind                             : Complete Main
Default                                  : Да
Forced                                   : Нет

Аудио #2
Идентификатор                            : 3
Формат                                   : AC-3
Формат/Информация                        : Audio Coding 3
Идентификатор кодека                     : A_AC3
Продолжительность                        : 54 м. 15 с.
Вид битрейта                             : Постоянный
Битрейт                                  : 384 Кбит/сек
Каналы                                   : 6 каналов
Расположение каналов                     : Front: L C R, Side: L R, LFE
Частота                                  : 48,0 КГц
Частота кадров                           : 31,250 кадров/сек (1536 SPF)
Битовая глубина                          : 16 бит
Метод сжатия                             : С потерями
Размер потока                            : 149 Мбайт (9%)
Язык                                     : English
Service kind                             : Complete Main
Default                                  : Нет
Forced                                   : Нет
Скриншоты:



Время раздачи: С 20:00 ДО 3:00
[NNM-Club.ru]_Spartacus Blood and Sand.torrent
 Торрент: Платиновая раздача  Зарегистрирован
 
Скачать


Примагнититься
 Зарегистрирован:   07 Дек 2018 11:00:15
 Размер:   20,4 GB  (
 Рейтинг:   4,9 (Голосов: 90)
 Поблагодарили:   301
 Проверка:   Оформление проверено модератором 07 Дек 2018 11:00:25
Как cкачать  ·  Как раздать  ·  Правильно оформить  ·  Поднять ратио!  
54pioner54 ®
Стаж: 9 лет 1 мес.
Сообщений: 304
Ratio: 179,79
Поблагодарили: 5236
100%
Откуда: Nsk
cuba.gif
Внимание!! Добавлена пропер-версия первой серии в качестве HDTVRip - 624x352
SHAKAL
Стаж: 9 лет 7 мес.
Сообщений: 4053
Ratio: 309,676
Раздал: 22,79 TB
Поблагодарили: 113676
100%
Откуда: Кривой Рог
ukraine.gif
Я так понимаю это чьих то рук сборка? Записали видео-поток и наложили звуковую дорожку с промо-релизов от ЛФ?
54pioner54 ®
Стаж: 9 лет 1 мес.
Сообщений: 304
Ratio: 179,79
Поблагодарили: 5236
100%
Откуда: Nsk
cuba.gif
SHAKAL писал(а): link
Я так понимаю это чьих то рук сборка? Записали видео-поток и наложили звуковую дорожку с промо-релизов от ЛФ?

да так и есть!
Alexander1408
Стаж: 9 лет 4 мес.
Сообщений: 60
Ratio: 17,509
18.72%
ussr.gif
А когда оф. релиза ждать?
SHAKAL
Стаж: 9 лет 7 мес.
Сообщений: 4053
Ratio: 309,676
Раздал: 22,79 TB
Поблагодарили: 113676
100%
Откуда: Кривой Рог
ukraine.gif
В Америке он вышел 22 января. Так что думаю сегодня-завтра
54pioner54 ®
Стаж: 9 лет 1 мес.
Сообщений: 304
Ratio: 179,79
Поблагодарили: 5236
100%
Откуда: Nsk
cuba.gif
Внимание!! Добавлена пропер-версия первой серии в качестве HDTVRip - 624x352
SHAKAL
Стаж: 9 лет 7 мес.
Сообщений: 4053
Ratio: 309,676
Раздал: 22,79 TB
Поблагодарили: 113676
100%
Откуда: Кривой Рог
ukraine.gif
Зачем смешивать 2 разных качества? Заливай уже только ХДТВ а второй раздачей будет Рип
Garryson
Сталкер
Uploader 200+
Стаж: 10 лет 4 мес.
Сообщений: 4983
Ratio: 1228,952
Поблагодарили: 156194
100%
Откуда: DFO
SHAKAL
54pioner54

Дебаты в ЛС
54pioner54 ®
Стаж: 9 лет 1 мес.
Сообщений: 304
Ratio: 179,79
Поблагодарили: 5236
100%
Откуда: Nsk
cuba.gif
SHAKAL
Да зачем лепить одну и туже тему дважды. смысл? да и 720р пока не ясно дорожка из пропер версии ровно не ложится. а синхронизировать пока не получается.
Ми-Мих
Стаж: 9 лет 1 мес.
Сообщений: 3
Ratio: 3,97
11.66%
Когда можно ждать продолжения? ))))
SHAKAL
Стаж: 9 лет 7 мес.
Сообщений: 4053
Ratio: 309,676
Раздал: 22,79 TB
Поблагодарили: 113676
100%
Откуда: Кривой Рог
ukraine.gif
Где-то так(не забываем что это даты оригиналов для релизов ЛФ + время на перевод)
Spartacus: Blood and Sand / Спартак: кровь и песок
Pilot: The Red Serpent – 22 January 2010
Episode 2: Sacramentum Gladiatorum — 29 January 2010
Episode 3: Legends— 5 February 2010
Episode 4: The Pits— 12 February 2010
Episode 5: Episode #1.5— 19 February 2010
Episode 6: Episode #1.6— 26 February 2010
Episode 7: Episode #1.7— 2010
Episode 8: Episode #1.8—2010
Episode 9: Episode #1.9—2010
Episode 10: Episode #1.10—2010
Episode 11: Episode #1.11—????
Episode 12: Episode #1.12—2010
Episode 13: Episode #1.13—2010
Ми-Мих
Стаж: 9 лет 1 мес.
Сообщений: 3
Ratio: 3,97
11.66%
))) Спасибо большое!!!!
54pioner54 ®
Стаж: 9 лет 1 мес.
Сообщений: 304
Ratio: 179,79
Поблагодарили: 5236
100%
Откуда: Nsk
cuba.gif
Добавлена 2 серия!!!
Добавлена 1-2 серия в HDTV 720p с звуком из пропер версии
Епихондрий
Стаж: 9 лет 2 мес.
Сообщений: 260
Ratio: 45,492
Поблагодарили: 3092
100%
Откуда: 61 рег
russia.gif
Цитата:
Внимание! Раздача ведётся путём добавления новых серий!

какое может быть обновление если неделю назад я качал 1-ю серию в HDTV 720p
весом 1.36 Гб , а сейчас она 1.6 Гб ?
Показать сообщения:   
Начать новую тему   Ответить на тему    Торрент-трекер NNM-Club -> Зарубежные сериалы Часовой пояс: GMT + 3
Страницы:  1, 2, 3  След.
Страница 1 из 3