Классический форум-трекер
canvas not supported
Нас вместе: 4 078 001

Вершки и корешки (1974) DVDRip


 
 
RSS
Начать новую тему   Ответить на тему    Торрент-трекер NNM-Club -> Мультфильмы -> Отечественные Мультфильмы для детей
Автор Сообщение
Focus ®
Стаж: 12 лет 8 мес.
Сообщений: 36
Ratio: 14,417
Поблагодарили: 3195
44.44%
Откуда: Earth
ussr.gif
Вершки и корешки (1974) DVDRip
Год выпуска: 1974
Производство: СССР / Союзмультфильм
Жанр: Мультфильм, Короткометражка

Описание фильма:
По сказке об умном мужике и ленивом медведе

Режиссер: Леонид Носырев
Сценарист: Леонид Носырев
Художник-постановщик: Вера Кудрявцева-Енгалычева
Аниматоры: Алексей Букин, Юрий Батанин, Владимир Шевченко, Александр Мазаев, Марина Рогова, Юрий Кузюрин
Оператор: Михаил Друян
Директор: Любовь Бутырина
Композитор: Евгений Ботяров
Звукооператор: Владимир Кутузов
Редактор: Аркадий Снесарев
Текст читает: Валерий Золотухин
Монтажер: Елена Тертычная

Продолжительность: 00:11:34
Качество видео: DVDRip



Видео: MPEG-4 DivX 5, 512x384 (4:3), 25.000 fps, ~1752 Kb/s (0.356 bit/pixel)
Аудио: AC-3, 48.0 KHz, 2.0 ch, 192 Kb/s, CBR | Russian
Код:
Общее
Полное имя                               : vershki_i_koreshki.avi
Формат                                   : AVI
Формат/Информация                        : Audio Video Interleave
Размер файла                             : 162 Мбайт
Продолжительность                        : 11 м.
Общий поток                              : 1952 Кбит/сек
Название фильма                          : Вершки и корешки
Режиссёр                                 : RDA Team
Тема                                     : Вершки и корешки
Программа кодирования                    : Nandub v1.0rc2
Библиотека кодирования                   : Nandub build 1852/release
Правообладатель                          : © 2003

Видео
Идентификатор                            : 0
Формат                                   : MPEG-4 Visual
Параметр BVOP формата                    : 1
Параметр QPel формата                    : Нет
Параметр GMC формата                     : Без точки перехода
Параметр матрицы формата                 : Default (H.263)
Режим смешивания                         : Сжатый битовый поток
Идентификатор кодека                     : DX50
Идентификатор кодека/Подсказка           : DivX 5
Продолжительность                        : 11 м.
Битрейт                                  : 1752 Кбит/сек
Ширина                                   : 512 пикселей
Высота                                   : 384 пикселя
Соотношение сторон                       : 4:3
Частота кадров                           : 25,000 кадров/сек
Цветовое пространство                    : YUV
Субдискретизация насыщенности            : 4:2:0
Битовая глубина                          : 8 бит
Тип развёртки                            : Прогрессивная
Метод сжатия                             : С потерями
Бит/(Пиксели*Кадры)                      : 0.356
Размер потока                            : 145 Мбайт (90%)
Библиотека кодирования                   : DivX 5.0.5 (UTC 2003-04-24)

Аудио
Идентификатор                            : 1
Формат                                   : AC-3
Формат/Информация                        : Audio Coding 3
Расширение режима                        : CM (complete main)
Параметр Endianness формата              : Big
Идентификатор кодека                     : 2000
Продолжительность                        : 11 м.
Вид битрейта                             : Постоянный
Битрейт                                  : 192 Кбит/сек
Каналы                                   : 2 канала
Расположение каналов                     : Front: L R
Частота                                  : 48,0 КГц
Битовая глубина                          : 16 бит
Метод сжатия                             : С потерями
Задержка видео                           : 16 мс.
Размер потока                            : 15,9 Мбайт (10%)
Выравнивание                             : Разделение по промежуткам
Продолжительность промежутка             : 64  мс. (1,60 видеокадра)
Время предзагрузки промежутка            : 64  мс.
Скриншоты:
Реставрация от: Viсtоr
vershki_i_koreshki.torrent
 Торрент: Платиновая раздача  Зарегистрирован
 
Скачать


 Зарегистрирован:   04 Июн 2007 04:29:21
 Размер:   162 MB  (
 Рейтинг:   4,9 (Голосов: 53)
 Поблагодарили:   188
 Проверка:   Оформление проверено модератором 04 Июн 2007 07:51:15
Как cкачать  ·  Как раздать  ·  Правильно оформить  ·  Поднять ратио!  
Евгений72
Стаж: 12 лет 3 мес.
Сообщений: 21
Ratio: 1,105
Поблагодарили: 1387
100%
Вершки. Корешки. Прикол. СПАСИБО. :стеб: :стеб:
Показать сообщения:   
Начать новую тему   Ответить на тему    Торрент-трекер NNM-Club -> Мультфильмы -> Отечественные Мультфильмы для детей Часовой пояс: GMT + 3
Страница 1 из 1