Классический форум-трекер
canvas not supported
Нас вместе: 4 068 599

Ray Charles - 15 альбомов (1957-2004) [FLAC, APE|Lossless]<Blues, Soul>


 
 
RSS
Начать новую тему   Ответить на тему    Торрент-трекер NNM-Club -> Jazz, Blues, Soul -> Blues, Soul (Lossless)
Автор Сообщение
KozL ®
Стаж: 9 лет 5 мес.
Сообщений: 7291
Ratio: 37,61
Раздал: 6,043 TB
Поблагодарили: 11646
100%
Откуда: Аккерман
witch.png
Ray Charles - 15 альбомов (1957-2004)
Год: 1957-2004
Жанр: Blues, Soul

Кодек: FLAC, APE
Битрейт: Lossless

Общая продолжительность: 13:26:53

Трек-лист:
01. Ain't That Love
02. Drown in My Own Tears
03. Come Back (Baby)
04. Sinner's Prayer
05. Funny (But I Still Love You)
06. Losing Hand
07. A Fool for You
08. Hallelujah I Love Her So
09. Mess Around
10. This Little Girl of Mine
11. Mary Ann
12. Greenbacks
13. Don't You Know
14. I've Got a Woman


FLAC+.log+.cue+covers
Exact Audio Copy V0.99 prebeta 4 from 23. January 2008

Отчёт EAC об извлечении, выполненном 8. мая 2009, 19:24

Ray Charles / Ray Charles [Atlantic]

Дисковод: _NEC DVD_RW ND-3520A Adapter: 1 ID: 0

Режим чтения : Достоверность
Использование точного потока : Да
Отключение кэша аудио : Да
Использование указателей C2 : Нет

Коррекция смещения при чтении : 48
Способность читать области Lead-in и Lead-out : Нет
Заполнение пропущенных сэмплов тишиной : Да
Удаление блоков с тишиной в начале и конце : Нет
При вычислениях CRC использовались нулевые сэмплы : Да
Интерфейс : Установленный внешний ASPI-интерфейс

Выходной формат : Внутренние WAV-операции
Формат сэмплов : 44.100 Гц; 16 бит; стерео

TOC извлечённого CD

Трек | Старт | Длительность | Начальный сектор | Конечный сектор
---------------------------------------------------------------------
1 | 0:00.00 | 2:54.07 | 0 | 13056
2 | 2:54.07 | 3:22.03 | 13057 | 28209
3 | 6:16.10 | 3:06.32 | 28210 | 42191
4 | 9:22.42 | 3:24.30 | 42192 | 57521
5 | 12:46.72 | 3:15.08 | 57522 | 72154
6 | 16:02.05 | 3:13.57 | 72155 | 86686
7 | 19:15.62 | 3:00.65 | 86687 | 100251
8 | 22:16.52 | 2:36.73 | 100252 | 112024
9 | 24:53.50 | 2:42.00 | 112025 | 124174
10 | 27:35.50 | 2:33.42 | 124175 | 135691
11 | 30:09.17 | 2:48.53 | 135692 | 148344
12 | 32:57.70 | 2:52.12 | 148345 | 161256
13 | 35:50.07 | 2:55.20 | 161257 | 174401
14 | 38:45.27 | 2:53.65 | 174402 | 187441

Характеристики диапазона извлечения и сообщения об ошибках

Выбранный диапазон

Имя файла C:\TEMP\Ray Charles - Ray Charles [Atlantic].wav

Пиковый уровень 100.0 %
Качество диапазона 100.0 %
CRC копии E890D7C6
Копирование... OK

Ошибок не произошло

AccurateRip: сводка

Трек 1 точное извлечение (доверие 1) [821ED54B]
Трек 2 точное извлечение (доверие 1) [4315E88D]
Трек 3 точное извлечение (доверие 1) [7CB0EB91]
Трек 4 точное извлечение (доверие 1) [3068A3A1]
Трек 5 точное извлечение (доверие 1) [A19B2D66]
Трек 6 точное извлечение (доверие 1) [6FCEE934]
Трек 7 точное извлечение (доверие 1) [9DEB74D1]
Трек 8 точное извлечение (доверие 1) [07C5FC66]
Трек 9 точное извлечение (доверие 1) [E3DAEB01]
Трек 10 точное извлечение (доверие 1) [1FDBDA6E]
Трек 11 точное извлечение (доверие 1) [411A82E4]
Трек 12 точное извлечение (доверие 1) [F847CF88]
Трек 13 точное извлечение (доверие 1) [7D0BB79F]
Трек 14 точное извлечение (доверие 1) [1BDDC836]

Все треки извлечены точно

Конец отчёта
AUDIOCHECKER v2.0 beta (build 457) - by Dester - opdester@freemail.hu
~~~~~~~~~~~~~~~~~~~~~~~~~~~~~~~~~~
-=== НЕ РЕДАКТИРУЙТЕ ЭТОТ ФАЙЛ! ===-

Путь: ...\1957 - Ray Charles[Atlantic]

1 -=- Ray Charles - Ray Charles [Atlantic].flac -=- CDDA (100%)

204678724

CD1:
01 - How Long Blues
02 - Cosmic Ray
03 - The Genius After Hours
04 - Charlesville
05 - Bags Of Blues
06 - Deed I Do
07 - Blue Funk
Exact Audio Copy V0.99 prebeta 4 from 23. January 2008

EAC extraction logfile from 12. May 2009, 21:49

Ray Charles & Milt Jackson / Soul Brothers, Soul Meeting Disc 1

Used drive : _NEC DVD_RW ND-4550A Adapter: 1 ID: 1

Read mode : Secure
Utilize accurate stream : Yes
Defeat audio cache : Yes
Make use of C2 pointers : No

Read offset correction : 48
Overread into Lead-In and Lead-Out : No
Fill up missing offset samples with silence : Yes
Delete leading and trailing silent blocks : No
Null samples used in CRC calculations : Yes
Used interface : Installed external ASPI interface

Used output format : Internal WAV Routines
Sample format : 44.100 Hz; 16 Bit; Stereo

TOC of the extracted CD

Track | Start | Length | Start sector | End sector
---------------------------------------------------------
1 | 0:00.00 | 9:16.20 | 0 | 41719
2 | 9:16.20 | 5:23.52 | 41720 | 65996
3 | 14:39.72 | 5:25.28 | 65997 | 90399
4 | 20:05.25 | 4:57.30 | 90400 | 112704
5 | 25:02.55 | 8:50.67 | 112705 | 152521
6 | 33:53.47 | 5:51.13 | 152522 | 178859
7 | 39:44.60 | 8:06.15 | 178860 | 215324

Range status and errors

Selected range

Filename C:\RipMusic\Ray_Milt\RCHRLSMLTJCKSNa\Ray Charles & Milt Jackson - Soul Brothers_Soul Meeting\disc 1\Ray Charles & Milt Jackson - Soul Brothers, Soul Meeting Disc 1.wav

Peak level 95.5 %
Range quality 100.0 %
Copy CRC C3CF29E9
Copy OK

No errors occurred

End of status report
AUDIOCHECKER v2.0 beta (build 457) - by Dester - opdester@freemail.hu
~~~~~~~~~~~~~~~~~~~~~~~~~~~~~~~~~~
-=== НЕ РЕДАКТИРУЙТЕ ЭТОТ ФАЙЛ! ===-

Путь: ...\disc 1

1 -=- Ray Charles & Milt Jackson - Soul Brothers, Soul Meeting Disc 1.ape -=- CDDA (99%)

64213012

CD2:
01 - Soul Brothers
02 - Bag's Guitar Blues
03 - Soul Meeting
04 - Hallelujah I Love Her So
05 - Blue Genius
06 - X-Ray Blues
07 - Love on my Mind
Exact Audio Copy V0.99 prebeta 4 from 23. January 2008

EAC extraction logfile from 12. May 2009, 21:20

Ray Charles & Milt Jackson / Soul Brothers, Soul Meeting,2

Used drive : _NEC DVD_RW ND-4550A Adapter: 1 ID: 1

Read mode : Secure
Utilize accurate stream : Yes
Defeat audio cache : Yes
Make use of C2 pointers : No

Read offset correction : 48
Overread into Lead-In and Lead-Out : No
Fill up missing offset samples with silence : Yes
Delete leading and trailing silent blocks : No
Null samples used in CRC calculations : Yes
Used interface : Installed external ASPI interface

Used output format : Internal WAV Routines
Sample format : 44.100 Hz; 16 Bit; Stereo

TOC of the extracted CD

Track | Start | Length | Start sector | End sector
---------------------------------------------------------
1 | 0:00.00 | 9:35.25 | 0 | 43149
2 | 9:35.25 | 6:27.13 | 43150 | 72187
3 | 16:02.38 | 6:04.05 | 72188 | 99492
4 | 22:06.43 | 5:29.57 | 99493 | 124224
5 | 27:36.25 | 6:40.00 | 124225 | 154224
6 | 34:16.25 | 8:11.60 | 154225 | 191109
7 | 42:28.10 | 3:42.68 | 191110 | 207827

Range status and errors

Selected range

Filename C:\RipMusic\Ray_Milt\RCHRLSMLTJCKSNa\Ray Charles & Milt Jackson - Soul Brothers_Soul Meeting\disc 2\Ray Charles & Milt Jackson - Soul Brothers, Soul Meeting,2.wav

Peak level 96.3 %
Range quality 100.0 %
Copy CRC 765BCD8A
Copy OK

No errors occurred

End of status report
AUDIOCHECKER v2.0 beta (build 457) - by Dester - opdester@freemail.hu
~~~~~~~~~~~~~~~~~~~~~~~~~~~~~~~~~~
-=== НЕ РЕДАКТИРУЙТЕ ЭТОТ ФАЙЛ! ===-

Путь: ...\disc 2

1 -=- Ray Charles & Milt Jackson - Soul Brothers, Soul Meeting,2.ape -=- CDDA (100%)

59491060

01 - From the heart
02 - I've got news for you
03 - Moanin'
04 - Let's go
05 - One mint julep
06 - I'm gonna move to the outskirts of town
07 - Stompin' room only
08 - Mister C
09 - Strike up the band
10 - Birth of the blues
AUDIOCHECKER v2.0 beta (build 457) - by Dester - opdester@freemail.hu
~~~~~~~~~~~~~~~~~~~~~~~~~~~~~~~~~~
-=== НЕ РЕДАКТИРУЙТЕ ЭТОТ ФАЙЛ! ===-

Путь: ...\1960 - Genius + Soul = Jazz

01 -=- 01 - From the heart.flac -=- CDDA (100%)
02 -=- 02 - I've got news for you.flac -=- CDDA (100%)
03 -=- 03 - Moanin'.flac -=- CDDA (100%)
04 -=- 04 - Let's go.flac -=- CDDA (100%)
05 -=- 05 - One mint julep.flac -=- CDDA (99%)
06 -=- 06 - I'm gonna move to the outskirts of town.flac -=- CDDA (100%)
07 -=- 07 - Stompin' room only.flac -=- CDDA (99%)
08 -=- 08 - Mister C.flac -=- CDDA (100%)
09 -=- 09 - Strike up the band.flac -=- CDDA (100%)
10 -=- 10 - Birth of the blues.flac -=- CDDA (100%)

Сводка 99,80% CDDA

49563332

1. Band Intro
2. Strike up the Band
3. One Mint Julep
4. I Got a Woman
5. Georgia on My Mind
6. Margie
7. Danger Zone
8. Hallelujah. I Love Her So
9. Come Rain or Come Shine
10. Hide nor Hair
11. Alexander's Ragtime Band
12. I Believe to My Soul
13. Hit the Road Jack
14. Night Time Is the Right Time
15. Bye Bye Love
16. Unchain My Heart
17. What'd I Say
Exact Audio Copy V0.99 prebeta 4 from 23. January 2008

EAC extraction logfile from 28. April 2009, 20:53

Ray Charles / Ray Charles - Berlin, 1962

Used drive : HL-DT-STRW/DVD GCC-4242N Adapter: 1 ID: 0

Read mode : Secure
Utilize accurate stream : Yes
Defeat audio cache : Yes
Make use of C2 pointers : No

Read offset correction : 102
Overread into Lead-In and Lead-Out : No
Fill up missing offset samples with silence : Yes
Delete leading and trailing silent blocks : No
Null samples used in CRC calculations : Yes
Used interface : Native Win32 interface for Win NT & 2000

Used output format : Internal WAV Routines
Sample format : 44.100 Hz; 16 Bit; Stereo

TOC of the extracted CD

Track | Start | Length | Start sector | End sector
---------------------------------------------------------
1 | 0:00.00 | 0:58.55 | 0 | 4404
2 | 0:58.55 | 2:23.00 | 4405 | 15129
3 | 3:21.55 | 3:07.20 | 15130 | 29174
4 | 6:29.00 | 6:22.50 | 29175 | 57874
5 | 12:51.50 | 6:18.17 | 57875 | 86241
6 | 19:09.67 | 2:29.45 | 86242 | 97461
7 | 21:39.37 | 3:50.08 | 97462 | 114719
8 | 25:29.45 | 3:09.47 | 114720 | 128941
9 | 28:39.17 | 7:42.28 | 128942 | 163619
10 | 36:21.45 | 3:14.45 | 163620 | 178214
11 | 39:36.15 | 2:28.05 | 178215 | 189319
12 | 42:04.20 | 3:56.55 | 189320 | 207074
13 | 46:01.00 | 2:33.72 | 207075 | 218621
14 | 48:34.72 | 4:05.60 | 218622 | 237056
15 | 52:40.57 | 2:16.15 | 237057 | 247271
16 | 54:56.72 | 3:05.38 | 247272 | 261184
17 | 58:02.35 | 4:05.65 | 261185 | 279624

Range status and errors

Selected range

Filename C:\_\EAC_Out\Out\Ray Charles - Ray Charles - Berlin, 1962\Ray Charles - Ray Charles - Berlin, 1962.wav

Peak level 100.0 %
Range quality 100.0 %
Copy CRC 063758AB
Copy OK

No errors occurred

AccurateRip summary

Track 1 accurately ripped (confidence 1) [0500EAEE]
Track 2 accurately ripped (confidence 1) [EA9CFE78]
Track 3 accurately ripped (confidence 1) [F6DDCDAD]
Track 4 accurately ripped (confidence 1) [14C893C4]
Track 5 accurately ripped (confidence 1) [571CDB40]
Track 6 accurately ripped (confidence 1) [DC5E1D10]
Track 7 accurately ripped (confidence 1) [70C8AB91]
Track 8 accurately ripped (confidence 1) [F6B82B04]
Track 9 accurately ripped (confidence 1) [18E5FDDA]
Track 10 accurately ripped (confidence 1) [64864908]
Track 11 accurately ripped (confidence 1) [70D75F99]
Track 12 accurately ripped (confidence 1) [5BD9A8F8]
Track 13 accurately ripped (confidence 1) [77F0E474]
Track 14 accurately ripped (confidence 1) [33A96086]
Track 15 accurately ripped (confidence 1) [199B5306]
Track 16 accurately ripped (confidence 1) [BA7342EC]
Track 17 accurately ripped (confidence 1) [C25AF14D]

All tracks accurately ripped

End of status report
AUDIOCHECKER v2.0 beta (build 457) - by Dester - opdester@freemail.hu
~~~~~~~~~~~~~~~~~~~~~~~~~~~~~~~~~~
-=== НЕ РЕДАКТИРУЙТЕ ЭТОТ ФАЙЛ! ===-

Путь: ...\1962 - Berlin

1 -=- Ray Charles - Ray Charles - Berlin, 1962.ape -=- CDDA (100%)

260088212

1. Over the Rainbow
2. Ol' Man Time
3. In the Evening (When the Sun Goes Down)
4. Busted
5. A Stranger in Town
6. That Lucky Old Sun
7. Born to Be Blue
8. Where Can I Go?
9. Ol' Man River
10. You'll Never Walk Alone
11. Something's Wrong
12. The Brightest Smile in Town
13. Worried Life Blues
14. My Baby! (I Love Her, Yes I Do)
Exact Audio Copy V0.99 prebeta 4 from 23. January 2008

EAC extraction logfile from 7. September 2009, 22:10

Ray Charles / Ingredients In A Recipe For Soul

Used drive : HL-DT-STRW/DVD GCC-4242N Adapter: 1 ID: 0

Read mode : Secure
Utilize accurate stream : Yes
Defeat audio cache : Yes
Make use of C2 pointers : No

Read offset correction : 102
Overread into Lead-In and Lead-Out : No
Fill up missing offset samples with silence : Yes
Delete leading and trailing silent blocks : No
Null samples used in CRC calculations : Yes
Used interface : Native Win32 interface for Win NT & 2000

Used output format : Internal WAV Routines
Sample format : 44.100 Hz; 16 Bit; Stereo

TOC of the extracted CD

Track | Start | Length | Start sector | End sector
---------------------------------------------------------
1 | 0:00.00 | 4:09.17 | 0 | 18691
2 | 4:09.17 | 2:27.45 | 18692 | 29761
3 | 6:36.62 | 5:50.35 | 29762 | 56046
4 | 12:27.22 | 2:15.53 | 56047 | 66224
5 | 14:43.00 | 2:26.72 | 66225 | 77246
6 | 17:09.72 | 4:20.63 | 77247 | 96809
7 | 21:30.60 | 2:53.70 | 96810 | 109854
8 | 24:24.55 | 3:29.50 | 109855 | 125579
9 | 27:54.30 | 5:29.22 | 125580 | 150276
10 | 33:23.52 | 4:00.53 | 150277 | 168329
11 | 37:24.30 | 2:49.25 | 168330 | 181029
12 | 40:13.55 | 2:47.67 | 181030 | 193621
13 | 43:01.47 | 3:07.13 | 193622 | 207659
14 | 46:08.60 | 3:04.15 | 207660 | 221474

Range status and errors

Selected range

Filename C:\_\EAC_Out\Out\Ray Charles - Ingredients In A Recipe For Soul\Ray Charles - Ingredients In A Recipe For Soul.wav

Peak level 100.0 %
Range quality 100.0 %
Copy CRC FDF8AD4B
Copy OK

No errors occurred

AccurateRip summary

Track 1 not present in database
Track 2 not present in database
Track 3 not present in database
Track 4 not present in database
Track 5 not present in database
Track 6 not present in database
Track 7 not present in database
Track 8 not present in database
Track 9 not present in database
Track 10 not present in database
Track 11 accurately ripped (confidence 1) [69A5B2CA]
Track 12 accurately ripped (confidence 1) [D0AB2E1F]
Track 13 accurately ripped (confidence 1) [2022B962]
Track 14 accurately ripped (confidence 1) [B017DAC4]

4 track(s) accurately ripped
0 track(s) not present in the AccurateRip database

Some tracks could not be verified as accurate

End of status report
AUDIOCHECKER v2.0 beta (build 457) - by Dester - opdester@freemail.hu
~~~~~~~~~~~~~~~~~~~~~~~~~~~~~~~~~~
-=== НЕ РЕДАКТИРУЙТЕ ЭТОТ ФАЙЛ! ===-

Путь: ...\Ray Charles - Ingredients In A Recipe For Soul

1 -=- Ray Charles - Ingredients In A Recipe For Soul.ape -=- CDDA (100%)

50218100

1. Cry
2. Guess I'll Hang My Tears Out to Dry
3. Tear Fell
4. No One to Cry To
5. You've Got Me Crying Again
6. After My Laughter Came Tears
7. Teardrops from My Eyes
8. Don't Cry Baby
9. Cry Me a River
10. Baby, Don't You Cry
11. Willow, Weep for Me
12. I Cried for You
Bonus Tears
13. My Heart Cries for You
14. I Wake Up Crying
15. Drown in My Own Tears
16. Teardrops in My Heart
17. Crying Time
18. No Use Crying
19. Tired of My Tears
Exact Audio Copy V0.99 prebeta 5 from 4. May 2009

EAC extraction logfile from 3. October 2009, 3:31

Ray Charles / Sweet & Sour Tears [50th Anniversary, Rhino]

Used drive : PLEXTOR CD-R PX-W1210A Adapter: 3 ID: 1

Read mode : Secure
Utilize accurate stream : Yes
Defeat audio cache : Yes
Make use of C2 pointers : No

Read offset correction : 99
Overread into Lead-In and Lead-Out : No
Fill up missing offset samples with silence : Yes
Delete leading and trailing silent blocks : No
Null samples used in CRC calculations : Yes
Used interface : Installed external ASPI interface
Gap handling : Not detected, thus appended to previous track

Used output format : Internal WAV Routines
Sample format : 44.100 Hz; 16 Bit; Stereo

TOC of the extracted CD

Track | Start | Length | Start sector | End sector
---------------------------------------------------------
1 | 0:00.32 | 3:34.50 | 32 | 16131
2 | 3:35.07 | 4:20.53 | 16132 | 35684
3 | 7:55.60 | 2:45.52 | 35685 | 48111
4 | 10:41.37 | 2:43.73 | 48112 | 60409
5 | 13:25.35 | 2:52.62 | 60410 | 73371
6 | 16:18.22 | 3:13.53 | 73372 | 87899
7 | 19:32.00 | 3:29.70 | 87900 | 103644
8 | 23:01.70 | 3:09.10 | 103645 | 117829
9 | 26:11.05 | 3:20.25 | 117830 | 132854
10 | 29:31.30 | 2:40.20 | 132855 | 144874
11 | 32:11.50 | 4:37.05 | 144875 | 165654
12 | 36:48.55 | 2:40.60 | 165655 | 177714
13 | 39:29.40 | 2:51.30 | 177715 | 190569
14 | 42:20.70 | 3:00.07 | 190570 | 204076
15 | 45:21.02 | 3:21.65 | 204077 | 219216
16 | 48:42.67 | 3:05.20 | 219217 | 233111
17 | 51:48.12 | 2:58.63 | 233112 | 246524
18 | 54:47.00 | 3:19.27 | 246525 | 261476
19 | 58:06.27 | 2:23.40 | 261477 | 272241

Track 1

Filename J:\EAC Rips\sst\01) CRY - Ray Charles.wav

Peak level 100.0 %
Track quality 100.0 %
Test CRC 0CF56049
Copy CRC 0CF56049
Accurately ripped (confidence 1) [96B3D577]
Copy OK

Track 2

Filename J:\EAC Rips\sst\02) GUESS I'LL HANG MY TEARS OUT TO DRY - Ray Charles.wav

Peak level 83.1 %
Track quality 100.0 %
Test CRC 57DFB1C0
Copy CRC 57DFB1C0
Accurately ripped (confidence 1) [E2B39940]
Copy OK

Track 3

Filename J:\EAC Rips\sst\03) A TEAR FELL - Ray Charles.wav

Peak level 100.0 %
Track quality 99.9 %
Test CRC 87B6EAE2
Copy CRC 87B6EAE2
Accurately ripped (confidence 1) [538344B2]
Copy OK

Track 4

Filename J:\EAC Rips\sst\04) NO ONE TO CRY TO - Ray Charles.wav

Peak level 83.1 %
Track quality 100.0 %
Test CRC 03E84C0D
Copy CRC 03E84C0D
Accurately ripped (confidence 1) [F2A439AC]
Copy OK

Track 5

Filename J:\EAC Rips\sst\05) YOU'VE GOT ME CRYING AGAIN - Ray Charles.wav

Peak level 89.3 %
Track quality 100.0 %
Test CRC D64CCEF7
Copy CRC D64CCEF7
Accurately ripped (confidence 1) [F2FECB2C]
Copy OK

Track 6

Filename J:\EAC Rips\sst\06) AFTER MY LAUGHTER CAME TEARS - Ray Charles.wav

Peak level 84.9 %
Track quality 100.0 %
Test CRC 7011611A
Copy CRC 7011611A
Accurately ripped (confidence 1) [A386182E]
Copy OK

Track 7

Filename J:\EAC Rips\sst\07) TEARDROPS FROM MY EYES - Ray Charles.wav

Peak level 100.0 %
Track quality 100.0 %
Test CRC D4B86C84
Copy CRC D4B86C84
Accurately ripped (confidence 1) [F92D6ABE]
Copy OK

Track 8

Filename J:\EAC Rips\sst\08) DON'T CRY, BABY - Ray Charles.wav

Peak level 100.0 %
Track quality 100.0 %
Test CRC 44558F7A
Copy CRC 44558F7A
Accurately ripped (confidence 1) [06795974]
Copy OK

Track 9

Filename J:\EAC Rips\sst\09) CRY ME A RIVER - Ray Charles.wav

Peak level 100.0 %
Track quality 100.0 %
Test CRC 2EAA7AC6
Copy CRC 2EAA7AC6
Accurately ripped (confidence 1) [93BE44E2]
Copy OK

Track 10

Filename J:\EAC Rips\sst\10) BABY, DON'T YOU CRY - Ray Charles.wav

Peak level 92.9 %
Track quality 100.0 %
Test CRC AB5AF12E
Copy CRC AB5AF12E
Accurately ripped (confidence 1) [08101D94]
Copy OK

Track 11

Filename J:\EAC Rips\sst\11) WILLOW, WEEP FOR ME - Ray Charles.wav

Peak level 100.0 %
Track quality 100.0 %
Test CRC 259184C0
Copy CRC 259184C0
Accurately ripped (confidence 1) [BCA1438D]
Copy OK

Track 12

Filename J:\EAC Rips\sst\12) I CRIED FOR YOU - Ray Charles.wav

Peak level 100.0 %
Track quality 100.0 %
Test CRC 54F22CA8
Copy CRC 54F22CA8
Accurately ripped (confidence 1) [8F883A33]
Copy OK

Track 13

Filename J:\EAC Rips\sst\13) MY HEART CRIES FOR YOU - Ray Charles.wav

Peak level 100.0 %
Track quality 100.0 %
Test CRC E62E9BB5
Copy CRC E62E9BB5
Accurately ripped (confidence 1) [25AC7BE5]
Copy OK

Track 14

Filename J:\EAC Rips\sst\14) I WAKE UP CRYING - Ray Charles.wav

Peak level 73.6 %
Track quality 100.0 %
Test CRC CF1A2F56
Copy CRC CF1A2F56
Accurately ripped (confidence 1) [EFC96DE8]
Copy OK

Track 15

Filename J:\EAC Rips\sst\15) DROWN IN MY OWN TEARS - Ray Charles.wav

Peak level 100.0 %
Track quality 100.0 %
Test CRC 2F4C6896
Copy CRC 2F4C6896
Accurately ripped (confidence 1) [647CF33F]
Copy OK

Track 16

Filename J:\EAC Rips\sst\16) TEARDROPS IN MY HEART - Ray Charles.wav

Peak level 95.7 %
Track quality 99.9 %
Test CRC 92D7D5CF
Copy CRC 92D7D5CF
Accurately ripped (confidence 1) [CCF6E8C1]
Copy OK

Track 17

Filename J:\EAC Rips\sst\17) CRYING TIME - Ray Charles.wav

Peak level 100.0 %
Track quality 100.0 %
Test CRC FD17F129
Copy CRC FD17F129
Accurately ripped (confidence 1) [09381597]
Copy OK

Track 18

Filename J:\EAC Rips\sst\18) NO USE CRYING - Ray Charles.wav

Peak level 94.3 %
Track quality 100.0 %
Test CRC 26F9672F
Copy CRC 26F9672F
Accurately ripped (confidence 1) [004EFEB0]
Copy OK

Track 19

Filename J:\EAC Rips\sst\19) TIRED OF MY TEARS - Ray Charles.wav

Peak level 99.9 %
Track quality 100.0 %
Test CRC 27D75720
Copy CRC 27D75720
Accurately ripped (confidence 1) [74488B2A]
Copy OK

All tracks accurately ripped

No errors occurred

End of status report
AUDIOCHECKER v2.0 beta (build 457) - by Dester - opdester@freemail.hu
~~~~~~~~~~~~~~~~~~~~~~~~~~~~~~~~~~
-=== НЕ РЕДАКТИРУЙТЕ ЭТОТ ФАЙЛ! ===-

Путь: ...\1964 - Sweet & Sour Tears (1997 remaster)

01 -=- 01) CRY - Ray Charles.flac -=- CDDA (99%)
02 -=- 02) GUESS I'LL HANG MY TEARS OUT TO DRY - Ray Charles.flac -=- CDDA (100%)
03 -=- 03) A TEAR FELL - Ray Charles.flac -=- CDDA (100%)
04 -=- 04) NO ONE TO CRY TO - Ray Charles.flac -=- CDDA (100%)
05 -=- 05) YOU'VE GOT ME CRYING AGAIN - Ray Charles.flac -=- CDDA (100%)
06 -=- 06) AFTER MY LAUGHTER CAME TEARS - Ray Charles.flac -=- CDDA (100%)
07 -=- 07) TEARDROPS FROM MY EYES - Ray Charles.flac -=- CDDA (99%)
08 -=- 08) DON'T CRY, BABY - Ray Charles.flac -=- CDDA (100%)
09 -=- 09) CRY ME A RIVER - Ray Charles.flac -=- CDDA (100%)
10 -=- 10) BABY, DON'T YOU CRY - Ray Charles.flac -=- CDDA (100%)
11 -=- 11) WILLOW, WEEP FOR ME - Ray Charles.flac -=- CDDA (100%)
12 -=- 12) I CRIED FOR YOU - Ray Charles.flac -=- CDDA (100%)
13 -=- 13) MY HEART CRIES FOR YOU - Ray Charles.flac -=- CDDA (100%)
14 -=- 14) I WAKE UP CRYING - Ray Charles.flac -=- CDDA (100%)
15 -=- 15) DROWN IN MY OWN TEARS - Ray Charles.flac -=- CDDA (100%)
16 -=- 16) TEARDROPS IN MY HEART - Ray Charles.flac -=- CDDA (99%)
17 -=- 17) CRYING TIME - Ray Charles.flac -=- CDDA (100%)
18 -=- 18) NO USE CRYING - Ray Charles.flac -=- CDDA (100%)
19 -=- 19) TIRED OF MY TEARS - Ray Charles.flac -=- CDDA (99%)

Сводка 99,79% CDDA

219572564

1. "Golden Boy"
2. "Booty-Butt"
3. "This Here"
4. "I Remember Clifford"
5. "Sidewinder"
6. "Bluesette"
7. "Pas-Se-O-Ne Blues"
8. "Zig Zag"
9. "Angel City"
10. "Senior Blues"
AUDIOCHECKER v2.0 beta (build 457) - by Dester - opdester@freemail.hu
~~~~~~~~~~~~~~~~~~~~~~~~~~~~~~~~~~
-=== НЕ РЕДАКТИРУЙТЕ ЭТОТ ФАЙЛ! ===-

Путь: ...\1970 - My Kind Of Jazz

01 -=- 01 - Golden boy.flac -=- CDDA (99%)
02 -=- 02 - Booty-butt.flac -=- CDDA (100%)
03 -=- 03 - This here.flac -=- CDDA (100%)
04 -=- 04 - I remember Clifford.flac -=- CDDA (100%)
05 -=- 05 - Sidewinder.flac -=- CDDA (100%)
06 -=- 06 - Bluesette.flac -=- CDDA (100%)
07 -=- 07 - Pas-se-o-ne blues.flac -=- CDDA (100%)
08 -=- 08 - Zig zag.flac -=- CDDA (100%)
09 -=- 09 - Angel city.flac -=- CDDA (100%)
10 -=- 10 - Senor blues.flac -=- CDDA (100%)

Сводка 99,90% CDDA

227757092
01 - Lift Every Voice and Sing
02 - Seems Like I Gotta Do Wrong
03 - Heaven Help Us All
04 - There'll Be No Peace Without All Men as One
05 - Hey Mister
06 - What Have They Done to My Song, Ma
07 - Abraham, Martin and John
08 - Take Me Home, Country Roads
09 - Every Saturday Night
10 - America the Beautiful
Exact Audio Copy V0.99 prebeta 4 from 23. January 2008

EAC extraction logfile from 27. December 2009, 12:06

Ray Charles / A Message from the People

Used drive : SONY CD-RW CRX230ED Adapter: 3 ID: 1

Read mode : Secure
Utilize accurate stream : Yes
Defeat audio cache : Yes
Make use of C2 pointers : No

Read offset correction : 6
Overread into Lead-In and Lead-Out : No
Fill up missing offset samples with silence : Yes
Delete leading and trailing silent blocks : No
Null samples used in CRC calculations : Yes
Used interface : Installed external ASPI interface

Used output format : User Defined Encoder
Selected bitrate : 1024 kBit/s
Quality : High
Add ID3 tag : No
Command line compressor : C:\Program Files\FLAC\flac.exe
Additional command line options : -8 -V -T "ARTIST=%a" -T "TITLE=%t" -T "ALBUM=%g" -T "DATE=%y" -T "TRACKNUMBER=%n" -T "GENRE=%m" -T "COMMENT=EAC FLAC -8" %s

TOC извлечённого CD

Трек | Старт | Длительность | Начальный сектор | Конечный сектор
---------------------------------------------------------------------
1 | 0:00.00 | 3:09.44 | 0 | 14218
2 | 3:09.44 | 4:14.28 | 14219 | 33296
3 | 7:23.72 | 4:08.59 | 33297 | 51955
4 | 11:32.56 | 3:51.32 | 51956 | 69312
5 | 15:24.13 | 3:57.65 | 69313 | 87152
6 | 19:22.03 | 3:44.12 | 87153 | 103964
7 | 23:06.15 | 4:54.46 | 103965 | 126060
8 | 28:00.61 | 3:35.03 | 126061 | 142188
9 | 31:35.64 | 3:23.71 | 142189 | 157484
10 | 34:59.60 | 3:34.39 | 157485 | 173573

Характеристики диапазона извлечения и сообщения об ошибках

Выбранный диапазон

Имя файла C:\Ray Charles - A Message from the People.wav

Пиковый уровень 99.9 %
Качество диапазона 100.0 %
CRC теста F1C0FADF
CRC копии F1C0FADF
Копирование... OK

Ошибок не произошло

Конец отчёта
AUDIOCHECKER v2.0 beta (build 457) - by Dester - opdester@freemail.hu
~~~~~~~~~~~~~~~~~~~~~~~~~~~~~~~~~~
-=== НЕ РЕДАКТИРУЙТЕ ЭТОТ ФАЙЛ! ===-

Путь: ...\1972 - A Message from the People

1 -=- Ray Charles - A Message from the People.flac -=- CDDA (99%)

183877332

01 - What Child Is This
02 - The Little Drummer Boy
03 - Santa Claus Is Comin' To Town
04 - This Time Of The Year
05 - Rudolph The Red-Nosed Reindeer
06 - That Spirit of Christmas
07 - All I Want For Christmas
08 - Christmas In My Heart
09 - Winter Wonderland
10 - Christmas Time
11 - Baby, It's Cold Outside
AUDIOCHECKER v2.0 beta (build 457) - by Dester - opdester@freemail.hu
~~~~~~~~~~~~~~~~~~~~~~~~~~~~~~~~~~
-=== НЕ РЕДАКТИРУЙТЕ ЭТОТ ФАЙЛ! ===-

Путь: ...\1997 - The Spirit Of Christmas

01 -=- 01 Ray Charles - What Child Is This.flac -=- CDDA (100%)
02 -=- 02 Ray Charles - The Little Drummer Boy.flac -=- CDDA (100%)
03 -=- 03 Ray Charles - Santa Claus Is Comin' To Town.flac -=- CDDA (100%)
04 -=- 04 Ray Charles - This Time Of The Year.flac -=- CDDA (100%)
05 -=- 05 Ray Charles - Rudolph The Red-Nosed Reindeer.flac -=- CDDA (100%)
06 -=- 06 Ray Charles - That Spirit of Christmas.flac -=- CDDA (100%)
07 -=- 07 Ray Charles - All I Want For Christmas.flac -=- CDDA (100%)
08 -=- 08 Ray Charles - Christmas In My Heart.flac -=- CDDA (100%)
09 -=- 09 Ray Charles - Winter Wonderland.flac -=- CDDA (100%)
10 -=- 10 Ray Charles - Christmas Time.flac -=- CDDA (100%)
11 -=- 11 Ray Charles - Baby, It's Cold Outside.flac -=- CDDA (100%)

Сводка 100,00% CDDA

151105284

01 - Georgia On My Mind
02 - Unchain My Heart
03 - Born To Lose
04 - One Mint Julip
05 - You Don't Know Me
06 - Smack Dab In The Middle
07 - Crying Time
08 - Hide Nor Hair
09 - Let's Go Get Stoned
10 - That Lucky Old Sun
11 - Don't Change On Me
12 - Your Cheating Heart
13 - I Don't Need No Doctor
14 - Careless Love
15 - My Heart Cries For You
16 - I Chose To Sing The Blues
17 - If You Were Mine
18 - Baby Don't You Cry
19 - Here We Go Again
20 - Yesterday
EAC extraction logfile from 3. June 2007, 16:13 for CD
Ray Charles / His Greatest Hits (Vol. 1)

Used drive : PLEXTOR CD-R PX-230A Adapter: 1 ID: 0
Read mode : Secure with NO C2, accurate stream, disable cache
Read offset correction : 738
Overread into Lead-In and Lead-Out : Yes

Used output format : Monkey's Audio Lossless Encoder v3.99 DLL
Normal Lossless Compression

Other options :
Fill up missing offset samples with silence : Yes
Delete leading and trailing silent blocks : No
Installed external ASPI interface

Range status and errors
Selected range
Filename F:\Rips\Ray Charles - His Greatest Hits (Vol. 1).ape

Peak level 75.7 %
Range quality 100.0 %
CRC ED25D3C4
Copy OK

No errors occured

End of status report
AUDIOCHECKER v2.0 beta (build 457) - by Dester - opdester@freemail.hu
~~~~~~~~~~~~~~~~~~~~~~~~~~~~~~~~~~
-=== НЕ РЕДАКТИРУЙТЕ ЭТОТ ФАЙЛ! ===-

Путь: ...\1987 - His Greatest Hits vol.1

1 -=- Ray Charles - His Greatest Hits (Vol. 1).ape -=- CDDA (100%)

66168308

01 - Busted
02 - Hit The Road Jack
03 - I Can't Stop Loving You
04 - You Are My Sunshine
05 - Ruby
06 - Sticks And Stones
07 - Take These Chains From My Heart
08 - Them That Got
09 - No One
10 - Without Love (There Is Nothing)
11 - Don't Set Me Free
12 - I'm A Fool To Care
13 - Makin' Whoopee, Parts 1 & 2
14 - Hardhearted Hannah
15 - Baby It's Cold Outside
16 - At The Club
17 - In The Heat Of The Night
18 - Eleanor Rigby
19 - Look At What They Done To My Song, Ma
20 - America The Beautiful
EAC extraction logfile from 7. June 2007, 22:51 for CD
Ray Charles / His Greatest Hits, Vol. 2

Used drive : TSSTcorpCD/DVDW SH-S182D Adapter: 1 ID: 0
Read mode : Secure with NO C2, accurate stream, NO disable cache
Read offset correction : 6
Overread into Lead-In and Lead-Out : No

Used output format : C:\Program Files\FLAC\flac.exe (User Defined Encoder)
320 kBit/s
Additional command line options : -8 -T "artist=%a" -T "title=%t" -T "album=%g" -T "date=%y" -T "tracknumber=%n" -T "genre=%m" %s

Other options :
Fill up missing offset samples with silence : Yes
Delete leading and trailing silent blocks : No
Native Win32 interface for Win NT & 2000

Track 1
Filename D:\Ray Charles\His Greatest Hits, Vol. 2\01 - Busted.wav

Pre-gap length 0:00:02.00

Peak level 63.3 %
Track quality 100.0 %
Test CRC 1F6325AB
Copy CRC 1F6325AB
Copy OK

Track 2
Filename D:\Ray Charles\His Greatest Hits, Vol. 2\02 - Hit The Road Jack.wav

Pre-gap length 0:00:02.50

Peak level 57.1 %
Track quality 100.0 %
Test CRC 8FCA12A9
Copy CRC 8FCA12A9
Copy OK

Track 3
Filename D:\Ray Charles\His Greatest Hits, Vol. 2\03 - I Can't Stop Loving You.wav

Pre-gap length 0:00:03.15

Peak level 62.5 %
Track quality 100.0 %
Test CRC 3B7FF555
Copy CRC 3B7FF555
Copy OK

Track 4
Filename D:\Ray Charles\His Greatest Hits, Vol. 2\04 - You Are My Sunshine.wav

Pre-gap length 0:00:01.13

Peak level 79.2 %
Track quality 99.9 %
Test CRC 5D4E36B3
Copy CRC 5D4E36B3
Copy OK

Track 5
Filename D:\Ray Charles\His Greatest Hits, Vol. 2\05 - Ruby.wav

Pre-gap length 0:00:04.48

Peak level 58.1 %
Track quality 100.0 %
Test CRC BB88B494
Copy CRC BB88B494
Copy OK

Track 6
Filename D:\Ray Charles\His Greatest Hits, Vol. 2\06 - Sticks And Stones.wav

Pre-gap length 0:00:04.70

Peak level 67.3 %
Track quality 100.0 %
Test CRC F7863A7B
Copy CRC F7863A7B
Copy OK

Track 7
Filename D:\Ray Charles\His Greatest Hits, Vol. 2\07 - Take These Chains From My Heart.wav

Pre-gap length 0:00:03.40

Peak level 62.9 %
Track quality 100.0 %
Test CRC AA6001FD
Copy CRC AA6001FD
Copy OK

Track 8
Filename D:\Ray Charles\His Greatest Hits, Vol. 2\08 - Them That Got.wav

Pre-gap length 0:00:04.10

Peak level 71.0 %
Track quality 100.0 %
Test CRC 660B1590
Copy CRC 660B1590
Copy OK

Track 9
Filename D:\Ray Charles\His Greatest Hits, Vol. 2\09 - No One.wav

Pre-gap length 0:00:03.03

Peak level 87.6 %
Track quality 99.9 %
Test CRC D4B1E317
Copy CRC D4B1E317
Copy OK

Track 10
Filename D:\Ray Charles\His Greatest Hits, Vol. 2\10 - Without Love (There Is Nothing).wav

Pre-gap length 0:00:03.60

Peak level 66.3 %
Track quality 100.0 %
Test CRC C5CA32D1
Copy CRC C5CA32D1
Copy OK

Track 11
Filename D:\Ray Charles\His Greatest Hits, Vol. 2\11 - Don't Set Me Free.wav

Pre-gap length 0:00:04.50

Peak level 69.5 %
Track quality 100.0 %
Test CRC DB2004D9
Copy CRC DB2004D9
Copy OK

Track 12
Filename D:\Ray Charles\His Greatest Hits, Vol. 2\12 - I'm A Fool To Care.wav

Pre-gap length 0:00:03.25

Peak level 79.9 %
Track quality 100.0 %
Test CRC 32C1AF69
Copy CRC 32C1AF69
Copy OK

Track 13
Filename D:\Ray Charles\His Greatest Hits, Vol. 2\13 - Makin' Whoopee, Parts 1 & 2.wav

Pre-gap length 0:00:03.38

Peak level 76.6 %
Track quality 100.0 %
Test CRC 9C420655
Copy CRC 9C420655
Copy OK

Track 14
Filename D:\Ray Charles\His Greatest Hits, Vol. 2\14 - Hardhearted Hannah.wav

Pre-gap length 0:00:03.35

Peak level 58.7 %
Track quality 100.0 %
Test CRC 74FD9EFD
Copy CRC 74FD9EFD
Copy OK

Track 15
Filename D:\Ray Charles\His Greatest Hits, Vol. 2\15 - Baby It's Cold Outside.wav

Pre-gap length 0:00:03.42

Peak level 55.2 %
Track quality 100.0 %
Test CRC 3B78F03F
Copy CRC 3B78F03F
Copy OK

Track 16
Filename D:\Ray Charles\His Greatest Hits, Vol. 2\16 - At The Club.wav

Pre-gap length 0:00:03.65

Peak level 73.4 %
Track quality 100.0 %
Test CRC F09B16D7
Copy CRC F09B16D7
Copy OK

Track 17
Filename D:\Ray Charles\His Greatest Hits, Vol. 2\17 - In The Heat Of The Night.wav

Pre-gap length 0:00:03.20

Peak level 85.7 %
Track quality 100.0 %
Test CRC 58B23EE2
Copy CRC 58B23EE2
Copy OK

Track 18
Filename D:\Ray Charles\His Greatest Hits, Vol. 2\18 - Eleanor Rigby.wav

Pre-gap length 0:00:03.63

Peak level 45.5 %
Track quality 100.0 %
Test CRC 2FA3D93C
Copy CRC 2FA3D93C
Copy OK

Track 19
Filename D:\Ray Charles\His Greatest Hits, Vol. 2\19 - Look At What They Done To My Song, Ma.wav

Pre-gap length 0:00:04.50

Peak level 77.3 %
Track quality 100.0 %
Test CRC 3A17C89E
Copy CRC 3A17C89E
Copy OK

Track 20
Filename D:\Ray Charles\His Greatest Hits, Vol. 2\20 - America The Beautiful.wav

Pre-gap length 0:00:04.30

Peak level 73.4 %
Track quality 99.9 %
Test CRC 9A5F73F6
Copy CRC 9A5F73F6
Copy OK

No errors occured

End of status report
AUDIOCHECKER v2.0 beta (build 457) - by Dester - opdester@freemail.hu
~~~~~~~~~~~~~~~~~~~~~~~~~~~~~~~~~~
-=== НЕ РЕДАКТИРУЙТЕ ЭТОТ ФАЙЛ! ===-

Путь: ...\1987 - His Greatest Hits vol.2

01 -=- 01 - Busted.flac -=- CDDA (100%)
02 -=- 02 - Hit The Road Jack.flac -=- CDDA (100%)
03 -=- 03 - I Can't Stop Loving You.flac -=- CDDA (100%)
04 -=- 04 - You Are My Sunshine.flac -=- CDDA (100%)
05 -=- 05 - Ruby.flac -=- CDDA (100%)
06 -=- 06 - Sticks And Stones.flac -=- CDDA (100%)
07 -=- 07 - Take These Chains From My Heart.flac -=- CDDA (100%)
08 -=- 08 - Them That Got.flac -=- CDDA (100%)
09 -=- 09 - No One.flac -=- CDDA (100%)
10 -=- 10 - Without Love (There Is Nothing).flac -=- CDDA (100%)
11 -=- 11 - Don't Set Me Free.flac -=- CDDA (100%)
12 -=- 12 - I'm A Fool To Care.flac -=- CDDA (100%)
13 -=- 13 - Makin' Whoopee, Parts 1 & 2.flac -=- CDDA (100%)
14 -=- 14 - Hardhearted Hannah.flac -=- CDDA (100%)
15 -=- 15 - Baby It's Cold Outside.flac -=- CDDA (100%)
16 -=- 16 - At The Club.flac -=- CDDA (100%)
17 -=- 17 - In The Heat Of The Night.flac -=- CDDA (100%)
18 -=- 18 - Eleanor Rigby.flac -=- CDDA (100%)
19 -=- 19 - Look At What They Done To My Song, Ma.flac -=- CDDA (100%)
20 -=- 20 - America The Beautiful.flac -=- CDDA (100%)

Сводка 100,00% CDDA

154420212
01 - Confession blues
02 - This love of mine
03 - How long blues
04 - Blues before sunrise
05 - See see rider
06 - Late in the evening blues
07 - I wonder who's kissing her now
08 - Lonely boy
09 - Baby, won't you please come home
10 - Hey now!
11 - The snow is falling
12 - Misery in my heart
13 - Why did you go
14 - Walkin' and talkin'


FLAC+cover
AUDIOCHECKER v2.0 beta (build 457) - by Dester - opdester@freemail.hu
~~~~~~~~~~~~~~~~~~~~~~~~~~~~~~~~~~
-=== НЕ РЕДАКТИРУЙТЕ ЭТОТ ФАЙЛ! ===-

Путь: ...\1992 - Hey Now!

01 -=- 01 - Confession blues.flac -=- CDDA (100%)
02 -=- 02 - This love of mine.flac -=- CDDA (43%)
03 -=- 03 - How long blues.flac -=- CDDA (94%)
04 -=- 04 - Blues before sunrise.flac -=- CDDA (100%)
05 -=- 05 - See see rider.flac -=- CDDA (100%)
06 -=- 06 - Late in the evening blues.flac -=- CDDA (100%)
07 -=- 07 - I wonder who's kissing her now.flac -=- CDDA (100%)
08 -=- 08 - Lonely boy.flac -=- CDDA (58%)
09 -=- 09 - Baby, won't you please come home.flac -=- CDDA (86%)
10 -=- 10 - Hey now!.flac -=- CDDA (100%)
11 -=- 11 - The snow is falling.flac -=- CDDA (99%)
12 -=- 12 - Misery in my heart.flac -=- CDDA (49%)
13 -=- 13 - Why did you go.flac -=- CDDA (92%)
14 -=- 14 - Walkin' and talkin'.flac -=- CDDA (92%)

Сводка 86,64% CDDA

4387204
1. All She Wants To Do Is Love Me (4:14)
2. Say No More (4:19)
3. No Time To Waste (3:38)
4. Angelina (4:07)
5. Tell Me What You Want Me To Do (5:21)
6. Strong Love Affair (4:08)
7. Everybody's Handsome Guy (3:56)
8. Out Of My Life (4:25)
9. The Fever (3:46)
10. Seperate Ways (4:06)
11. I Need A Good Woman Bad (5:00)
12. If You Give Me Your Heart (4:27)


AUDIOCHECKER v2.0 beta (build 457) - by Dester - opdester@freemail.hu
~~~~~~~~~~~~~~~~~~~~~~~~~~~~~~~~~~
-=== НЕ РЕДАКТИРУЙТЕ ЭТОТ ФАЙЛ! ===-

Путь: ...\1996 - Strong Love Affair

01 -=- Ray Charles - Strong Love Affair - 01 - All She Wants To Do Is Love Me.flac -=- CDDA (100%)
02 -=- Ray Charles - Strong Love Affair - 02 - Say No More.flac -=- CDDA (100%)
03 -=- Ray Charles - Strong Love Affair - 03 - No Time To Waste Time.flac -=- CDDA (100%)
04 -=- Ray Charles - Strong Love Affair - 04 - Angelina.flac -=- CDDA (100%)
05 -=- Ray Charles - Strong Love Affair - 05 - Tell Me What You Want Me To Do.flac -=- CDDA (100%)
06 -=- Ray Charles - Strong Love Affair - 06 - Strong Love Affair.flac -=- CDDA (100%)
07 -=- Ray Charles - Strong Love Affair - 07 - Everybody's Handsome Child.flac -=- CDDA (100%)
08 -=- Ray Charles - Strong Love Affair - 08 - Out Of My Life.flac -=- CDDA (100%)
09 -=- Ray Charles - Strong Love Affair - 09 - The Fever.flac -=- CDDA (100%)
10 -=- Ray Charles - Strong Love Affair - 10 - Separate Ways.flac -=- CDDA (100%)
11 -=- Ray Charles - Strong Love Affair - 11 - I Need A Good Woman Bad.flac -=- CDDA (100%)
12 -=- Ray Charles - Strong Love Affair - 12 - If You Give Me Your Heart.flac -=- CDDA (100%)

Сводка 100,00% CDDA

92382020
01. What I'd say
02. Can you love me like that
03. How did you feel the morning after
04. I love you more than I ever have
05. Really got a hold on me
06. Thanks for bringing love around again
07. Save your lovin' just for me
08. I just can't get enough of you
09. Ensemble
10. New Orleans
11. Mr. Creole
12. Mother


APE+covers
AUDIOCHECKER v2.0 beta (build 457) - by Dester - opdester@freemail.hu
~~~~~~~~~~~~~~~~~~~~~~~~~~~~~~~~~~
-=== НЕ РЕДАКТИРУЙТЕ ЭТОТ ФАЙЛ! ===-

Путь: ...\2002 - Thanks For Bringing Love Around Again

01 -=- 01. Ray Charles - What'd I Say.ape -=- CDDA (100%)
02 -=- 02. Ray Charles - Can You Love Me Like That.ape -=- CDDA (100%)
03 -=- 03. Ray Charles - How Did You Feel the Morning After.ape -=- CDDA (100%)
04 -=- 04. Ray Charles - I Love You More than I Ever Have.ape -=- CDDA (100%)
05 -=- 05. Ray Charles - Really Got A Hold On Me.ape -=- CDDA (99%)
06 -=- 06. Ray Charles - Thanks for Bringing Love Around Again.ape -=- CDDA (100%)
07 -=- 07. Ray Charles - Save Your Lov'in Just for Me.ape -=- CDDA (100%)
08 -=- 08. Ray Charles - I Just Can't Get Enough of You.ape -=- CDDA (100%)
09 -=- 09. Ray Charles - Ensemble.ape -=- CDDA (100%)
10 -=- 10. Ray Charles - New Orleans.ape -=- CDDA (100%)
11 -=- 11. Ray Charles - Mr. Creole.ape -=- CDDA (100%)
12 -=- 12. Ray Charles - Mother.ape -=- CDDA (100%)

Сводка 99,92% CDDA

33095476
01 Here We Go Again (Norah Jones)
02 Sweet Potato Pie (James Taylor)
03 You Don't Know Me (Diana Krall)
04 Sorry Seems To Be The Hardest Word (Elton John)
05 Fever (Natalie Cole)
06 I Ever Cross Your Mind (Bonnie Raitt)
07 It Was A Very Good Year (Willie Nelson)
08 Hey Girl (Michael McDonald)
09 Sinner's Prayer (B.B. King)
10 Heaven Help Us All (Gladys Knight)
11 Over the Rainbow (Johnny Mathis)
12 Crazy Love (Van Morrison)


FLAC+.cue+.log+covers
EAC extraction logfile from 5. October 2007, 16:34 for CD
Ray Charles / Genius Loves Company

Used drive : ASUS CRW-5224A Adapter: 1 ID: 3
Read mode : Secure with C2, accurate stream, disable cache
Combined read/write offset correction : 0
Overread into Lead-In and Lead-Out : No

Used output format : C:\Program Files\Exact Audio Copy\flac.exe (User Defined Encoder)
320 kBit/s
Additional command line options : --best -T "ARTIST=%a" -T "TITLE=%t" -T "ALBUM=%g" -T "DATE=%y" -T "TRACKNUMBER=%n" -T "GENRE=%m" %s

Other options :
Fill up missing offset samples with silence : Yes
Delete leading and trailing silent blocks : No
Native Win32 interface for Win NT & 2000

Track 1
Filename D:\Users\microslav\My Documents\My Losless Music\Flac\Ray Charles\Genius Loves Company\01 Here We Go Again (Norah Jones).wav

Peak level 100.0 %
Track quality 100.0 %
Copy CRC ACE26A24
Copy OK

Track 2
Filename D:\Users\microslav\My Documents\My Losless Music\Flac\Ray Charles\Genius Loves Company\02 Sweet Potato Pie (James Taylor).wav

Peak level 89.1 %
Track quality 100.0 %
Copy CRC 3CDDFB7D
Copy OK

Track 3
Filename D:\Users\microslav\My Documents\My Losless Music\Flac\Ray Charles\Genius Loves Company\03 You Don't Know Me (Diana Krall).wav

Peak level 100.0 %
Track quality 100.0 %
Copy CRC 7788E151
Copy OK

Track 4
Filename D:\Users\microslav\My Documents\My Losless Music\Flac\Ray Charles\Genius Loves Company\04 Sorry Seems To Be The Hardest Word (Elton John).wav

Peak level 100.0 %
Track quality 100.0 %
Copy CRC AC28600A
Copy OK

Track 5
Filename D:\Users\microslav\My Documents\My Losless Music\Flac\Ray Charles\Genius Loves Company\05 Fever (Natalie Cole).wav

Peak level 100.0 %
Track quality 100.0 %
Copy CRC CF73D783
Copy OK

Track 6
Filename D:\Users\microslav\My Documents\My Losless Music\Flac\Ray Charles\Genius Loves Company\06 I Ever Cross Your Mind (Bonnie Raitt).wav

Peak level 100.0 %
Track quality 100.0 %
Copy CRC 9B93B832
Copy OK

Track 7
Filename D:\Users\microslav\My Documents\My Losless Music\Flac\Ray Charles\Genius Loves Company\07 It Was A Very Good Year (Willie Nelson).wav

Peak level 100.0 %
Track quality 100.0 %
Copy CRC DD4EBDCA
Copy OK

Track 8
Filename D:\Users\microslav\My Documents\My Losless Music\Flac\Ray Charles\Genius Loves Company\08 Hey Girl (Michael McDonald).wav

Peak level 100.0 %
Track quality 100.0 %
Copy CRC 4E6B83E4
Copy OK

Track 9
Filename D:\Users\microslav\My Documents\My Losless Music\Flac\Ray Charles\Genius Loves Company\09 Sinner's Prayer (B.B. King).wav

Peak level 100.0 %
Track quality 100.0 %
Copy CRC 7244A30B
Copy OK

Track 10
Filename D:\Users\microslav\My Documents\My Losless Music\Flac\Ray Charles\Genius Loves Company\10 Heaven Help Us All (Gladys Knight).wav

Peak level 100.0 %
Track quality 100.0 %
Copy CRC A17CA9BC
Copy OK

Track 11
Filename D:\Users\microslav\My Documents\My Losless Music\Flac\Ray Charles\Genius Loves Company\11 Over the Rainbow (Johnny Mathis).wav

Peak level 100.0 %
Track quality 100.0 %
Copy CRC D59E7106
Copy OK

Track 12
Filename D:\Users\microslav\My Documents\My Losless Music\Flac\Ray Charles\Genius Loves Company\12 Crazy Love (Van Morrison).wav

Peak level 100.0 %
Track quality 100.0 %
Copy CRC 47608BEF
Copy OK

No errors occured

End of status report
AUDIOCHECKER v2.0 beta (build 457) - by Dester - opdester@freemail.hu
~~~~~~~~~~~~~~~~~~~~~~~~~~~~~~~~~~
-=== НЕ РЕДАКТИРУЙТЕ ЭТОТ ФАЙЛ! ===-

Путь: ...\2004 - Genius Loves Company

01 -=- 01 Here We Go Again (Norah Jones).flac -=- CDDA (99%)
02 -=- 02 Sweet Potato Pie (James Taylor).flac -=- CDDA (100%)
03 -=- 03 You Don't Know Me (Diana Krall).flac -=- CDDA (100%)
04 -=- 04 Sorry Seems To Be The Hardest Word (Elton John).flac -=- CDDA (100%)
05 -=- 05 Fever (Natalie Cole).flac -=- CDDA (100%)
06 -=- 06 I Ever Cross Your Mind (Bonnie Raitt).flac -=- CDDA (100%)
07 -=- 07 It Was A Very Good Year (Willie Nelson).flac -=- CDDA (100%)
08 -=- 08 Hey Girl (Michael McDonald).flac -=- CDDA (99%)
09 -=- 09 Sinner's Prayer (B.B. King).flac -=- CDDA (100%)
10 -=- 10 Heaven Help Us All (Gladys Knight).flac -=- CDDA (100%)
11 -=- 11 Over the Rainbow (Johnny Mathis).flac -=- CDDA (100%)
12 -=- 12 Crazy Love (Van Morrison).flac -=- CDDA (100%)

Сводка 99,83% CDDA

164621460
Время раздачи: С 10:00 до 03:00(МСК)
[NNM-Club.ru]_Ray Charles.torrent
 Торрент: Платиновая раздача  Зарегистрирован
 
Скачать


 Зарегистрирован:   13 Апр 2010 13:07:37
 Размер:   4,53 GB  (
 Рейтинг:   4,9 (Голосов: 82)
 Поблагодарили:   295
 Проверка:   Оформление проверено модератором 13 Апр 2010 13:17:32
Как cкачать  ·  Как раздать  ·  Правильно оформить  ·  Поднять ратио!  
KozL ®
Стаж: 9 лет 5 мес.
Сообщений: 7291
Ratio: 37,61
Раздал: 6,043 TB
Поблагодарили: 11646
100%
Откуда: Аккерман
witch.png
По мере появления новых альбомов буду обновлять раздачу. Следите за новостями:)
KozL ®
Стаж: 9 лет 5 мес.
Сообщений: 7291
Ratio: 37,61
Раздал: 6,043 TB
Поблагодарили: 11646
100%
Откуда: Аккерман
witch.png
Добавил 3 альбома:
1972 - A Message From The People
1985 - The Spirit Of Christmas
1987 - His Greatest Hits vol.2
Перекачайте, пожалуйста, торрент-файл
Гость
Верни плиз трекер, ну очень прошу=(
KozL ®
Стаж: 9 лет 5 мес.
Сообщений: 7291
Ratio: 37,61
Раздал: 6,043 TB
Поблагодарили: 11646
100%
Откуда: Аккерман
witch.png
Добавил 7 альбомов:
1958 - Milt Jackson & Ray Charles - Soul Brothers/Soul Meeting
1960 - Genius + Soul = Jazz
1962 - Berlin
1963 - Ingridients In A Recipe For Soul
1964 - Sweet & Sour Tears
1970 - My Kind Of Jazz
1987 - His Greatest Hits vol.1

Перекачайте торрент-файл, пожалуйста
Svolochnoi
Стаж: 10 лет 7 мес.
Сообщений: 17
Ratio: 29,391
22.83%
Откуда: Западный Форпост
russia.gif
KozL

Хочу сказать О Г Р О М Н О Е С П А С И Б О за проделанную работу и отличный материал выложенный на этом ресурсе!
Vamil
Стаж: 9 лет 2 мес.
Сообщений: 46
Ratio: 2,03
100%
Откуда: Надым
russia.gif
Качаю-отдаю... огромное спасибо!

_________________
Что лучше - маски врагов на лицах друзей или маски друзей на лицах врагов?
hisa
Стаж: 9 лет 5 мес.
Сообщений: 18
Ratio: 12,456
100%
Откуда: николаев
ukraine.gif
класс

_________________
Kings Wind
Стаж: 8 лет 2 мес.
Сообщений: 1
Ratio: 1,187
30%
Легендарный человек ...
clint
Стаж: 8 лет
Сообщений: 58
Ratio: 1,827
100%
Откуда: Russia
russia.gif
Отличная подборка альбомов! Большое спасибо! :респект: :клево: :поклоняется:
bobik7770
Стаж: 5 лет 9 мес.
Сообщений: 8
Ratio: 18,752
100%
Друзья,буд те) так любезны-помогите с раздачей. Заранее благодарен)
Показать сообщения:   
Начать новую тему   Ответить на тему    Торрент-трекер NNM-Club -> Jazz, Blues, Soul -> Blues, Soul (Lossless) Часовой пояс: GMT + 3
Страница 1 из 1