Классический форум-трекер
canvas not supported
Нас вместе: 4 076 903

James Last - With Strings Attached (2004) 2CD [FLAC|Lossless]<Insrtrumental>


 
 
RSS
Начать новую тему   Ответить на тему    Торрент-трекер NNM-Club -> Архив торрентов -> Архив Музыки
Автор Сообщение
stef55 ®
Стаж: 10 лет 3 мес.
Сообщений: 24
Ratio: 5,898
Поблагодарили: 1832
0.4%
russia.gif
James Last - With Strings Attached (2CD) (2004)
Год: 2004
Жанр: Insrtrumental
Продолжительность: 01:49:46

Кодек: FLAC
Битрейт: Lossless
Тип рипа: image+.cue

Треклист:
CD1:
01. Fanfare
02. Medley: Besame Mucho/A Gay Ranchero/Volare
03. Mamma Mia
04. Hero
05. Always on My Mind
06. Geschichten Aus Dem Wiener Wald
07. Der Mai Ist Gekommen
08. Dancing Queen
09. Nature Boy
10. Reel Express
11. Orange Blossom Special
12. Lean on Me
13. Medley: Do Wah Diddy/Hey Baby

Продолжительность: 00:53:47
Код:
Exact Audio Copy V0.99 prebeta 4 from 23. January 2008

Отчёт EAC об извлечении, выполненном 19. декабря 2009, 20:47

James Last /  With Strings Attached CD1

Дисковод: Optiarc DVD RW AD-7173A   Adapter: 1  ID: 0

Режим чтения                 : Достоверность
Использование точного потока : Да
Отключение кэша аудио        : Да
Использование указателей C2  : Нет

Коррекция смещения при чтении                     : 48
Способность читать области Lead-in и Lead-out     : Нет
Заполнение пропущенных сэмплов тишиной            : Да
Удаление блоков с тишиной в начале и конце        : Нет
При вычислениях CRC использовались нулевые сэмплы : Да
Интерфейс                                         : Установленный внешний ASPI-интерфейс

Выходной формат          : Пользовательский кодировщик
Выбранный битрейт        : 768 kBit/s
Качество                 : Высокий
Добавление ID3-тэга      : Нет
Утилита сжатия           : C:\Program Files\Exact Audio Copy\FLAC\FLAC.EXE
Дополнительные параметры : -6 -V -T "ARTIST=%a" -T "TITLE=%t" -T "ALBUM=%g" -T "DATE=%y" -T "TRACKNUMBER=%n" -T "GENRE=%m" -T "COMMENT=%e" %s -o %d

TOC извлечённого CD

     Трек |   Старт  | Длительность | Начальный сектор | Конечный сектор
    ---------------------------------------------------------------------
       1  |  0:00.00 |    2:04.34   |           0      |       9333
       2  |  2:04.34 |    4:50.70   |        9334      |      31153
       3  |  6:55.29 |    3:32.72   |       31154      |      47125
       4  | 10:28.26 |    4:36.36   |       47126      |      67861
       5  | 15:04.62 |    3:35.70   |       67862      |      84056
       6  | 18:40.57 |    6:05.60   |       84057      |     111491
       7  | 24:46.42 |    3:06.38   |      111492      |     125479
       8  | 27:53.05 |    3:26.73   |      125480      |     141002
       9  | 31:20.03 |    4:31.47   |      141003      |     161374
      10  | 35:51.50 |    3:59.49   |      161375      |     179348
      11  | 39:51.24 |    3:57.69   |      179349      |     197192
      12  | 43:49.18 |    5:06.33   |      197193      |     220175
      13  | 48:55.51 |    4:50.64   |      220176      |     241989

Характеристики диапазона извлечения и сообщения об ошибках

Выбранный диапазон

     Имя файла C:\Documents and Settings\Admin\Рабочий стол\Новая папка (2)\James Last -  With Strings Attached CD1.wav

     Пиковый уровень 90.5 %
     Качество диапазона 100.0 %
     CRC копии ED4C6A6A
     Копирование... OK

Ошибок не произошло

Конец отчёта
Код:
AUDIOCHECKER v2.0 beta (build 457) - by Dester - opdester@freemail.hu
~~~~~~~~~~~~~~~~~~~~~~~~~~~~~~~~~~
-=== НЕ РЕДАКТИРУЙТЕ ЭТОТ ФАЙЛ! ===-

Путь: ...\Новая папка

01 -=- (01) [James Last] Fanfare.flac -=- CDDA (100%)
02 -=- (02) [James Last] Medley- Besame Mucho-A Gay Ranchero-Volare.flac -=- CDDA (100%)
03 -=- (03) [James Last] Mamma Mia.flac -=- CDDA (100%)
04 -=- (04) [James Last] Hero.flac -=- CDDA (100%)
05 -=- (05) [James Last] Always on My Mind.flac -=- CDDA (100%)
06 -=- (06) [James Last] Geschichten Aus Dem Wiener Wald.flac -=- CDDA (100%)
07 -=- (07) [James Last] Der Mai Ist Gekommen.flac -=- CDDA (100%)
08 -=- (08) [James Last] Dancing Queen.flac -=- CDDA (100%)
09 -=- (09) [James Last] Nature Boy.flac -=- CDDA (100%)
10 -=- (10) [James Last] Reel Express.flac -=- CDDA (100%)
11 -=- (11) [James Last] Orange Blossom Special.flac -=- CDDA (100%)
12 -=- (12) [James Last] Lean on Me.flac -=- CDDA (100%)
13 -=- (13) [James Last] Medley- Do Wah Diddy-Hey Baby.flac -=- CDDA (99%)

Сводка 99,92% CDDA

156747892
01. Granada Lady of Spain
02. My Heart Will Go On (Titanic Theme)
03. Beatles Medley: Can't Buy Me Love/A Hard Day's Night/Get Back/Ob la Di
04. Roses from the South (Rosen Aus Dem SГјden)
05. Trumpet Medley: A String of Pearls/In the Mood
06. Don't Cry for Me Argentina
07. Reach Out I'll Be There
08. Games That Lovers Play
09. My Way
10. Mambo, No.5
11. Have You Ever Really Loved a Woman?
12. Carmina Burana
13. You'll Be in My Heart

Продолжительность: 00:55:59
Код:
Exact Audio Copy V0.99 prebeta 4 from 23. January 2008

Отчёт EAC об извлечении, выполненном 19. декабря 2009, 21:38

James Last / With Strings Attached CD2

Дисковод: Optiarc DVD RW AD-7173A   Adapter: 1  ID: 0

Режим чтения                 : Достоверность
Использование точного потока : Да
Отключение кэша аудио        : Да
Использование указателей C2  : Нет

Коррекция смещения при чтении                     : 48
Способность читать области Lead-in и Lead-out     : Нет
Заполнение пропущенных сэмплов тишиной            : Да
Удаление блоков с тишиной в начале и конце        : Нет
При вычислениях CRC использовались нулевые сэмплы : Да
Интерфейс                                         : Установленный внешний ASPI-интерфейс

Выходной формат          : Пользовательский кодировщик
Выбранный битрейт        : 768 kBit/s
Качество                 : Высокий
Добавление ID3-тэга      : Нет
Утилита сжатия           : C:\Program Files\Exact Audio Copy\FLAC\FLAC.EXE
Дополнительные параметры : -6 -V -T "ARTIST=%a" -T "TITLE=%t" -T "ALBUM=%g" -T "DATE=%y" -T "TRACKNUMBER=%n" -T "GENRE=%m" -T "COMMENT=%e" %s -o %d

TOC извлечённого CD

     Трек |   Старт  | Длительность | Начальный сектор | Конечный сектор
    ---------------------------------------------------------------------
       1  |  0:00.00 |    4:47.71   |           0      |      21595
       2  |  4:47.71 |    4:08.37   |       21596      |      40232
       3  |  8:56.33 |    4:20.64   |       40233      |      59796
       4  | 13:17.22 |    4:21.23   |       59797      |      79394
       5  | 17:38.45 |    4:20.12   |       79395      |      98906
       6  | 21:58.57 |    5:50.60   |       98907      |     125216
       7  | 27:49.42 |    4:15.34   |      125217      |     144375
       8  | 32:05.01 |    3:05.19   |      144376      |     158269
       9  | 35:10.20 |    5:36.24   |      158270      |     183493
      10  | 40:46.44 |    3:30.65   |      183494      |     199308
      11  | 44:17.34 |    5:01.07   |      199309      |     221890
      12  | 49:18.41 |    2:36.59   |      221891      |     233649
      13  | 51:55.25 |    4:04.26   |      233650      |     251975

Характеристики диапазона извлечения и сообщения об ошибках

Выбранный диапазон

     Имя файла C:\Documents and Settings\Admin\Рабочий стол\Новая папка (2)\CD 2\James Last - With Strings Attached CD2.wav

     Пиковый уровень 100.0 %
     Качество диапазона 100.0 %
     CRC копии 9C661580
     Копирование... OK

Ошибок не произошло

Конец отчёта
Код:

AUDIOCHECKER v2.0 beta (build 457) - by Dester - opdester@freemail.hu
~~~~~~~~~~~~~~~~~~~~~~~~~~~~~~~~~~
-=== НЕ РЕДАКТИРУЙТЕ ЭТОТ ФАЙЛ! ===-

Путь: ...\Новая папка

01 -=- (01) [James Last] Granada Lady of Spain.flac -=- CDDA (100%)
02 -=- (02) [James Last] My Heart Will Go On (Titanic Theme).flac -=- CDDA (100%)
03 -=- (03) [James Last] Beatles Medley- Can't Buy Me Love-A Hard Day's Night-Get Back-Ob la Di.flac -=- CDDA (99%)
04 -=- (04) [James Last] Roses from the South (Rosen Aus Dem SГјden).flac -=- CDDA (100%)
05 -=- (05) [James Last] Trumpet Medley- A String of Pearls-In the Mood.flac -=- CDDA (100%)
06 -=- (06) [James Last] Don't Cry for Me Argentina.flac -=- CDDA (100%)
07 -=- (07) [James Last] Reach Out I'll Be There.flac -=- CDDA (99%)
08 -=- (08) [James Last] Games That Lovers Play.flac -=- CDDA (100%)
09 -=- (09) [James Last] My Way.flac -=- CDDA (100%)
10 -=- (10) [James Last] Mambo, No.5.flac -=- CDDA (100%)
11 -=- (11) [James Last] Have You Ever Really Loved a Woman-.flac -=- CDDA (100%)
12 -=- (12) [James Last] Carmina Burana.flac -=- CDDA (100%)
13 -=- (13) [James Last] You'll Be in My Heart.flac -=- CDDA (100%)

Сводка 99,85% CDDA

243972036
Время раздачи: 24/7 до 5 скачавших 09.12.2014 - Реставрация от: pris_v_v
[NNM-Club.ru]_2004 - With Strings Attached(2CD)(FLAC).torrent
 Торрент: Золотая раздача  Зарегистрирован
 
Зарегистрируйтесь и скачайте торрент!
17,9 KB

 Зарегистрирован:   15 Апр 2010 10:55:21
 Размер:   740 MB  (
 Рейтинг:    (Голосов: 7)
 Поблагодарили:   45
 Проверка:   Оформление проверено модератором 15 Апр 2010 13:45:09
Как cкачать  ·  Как раздать  ·  Правильно оформить  ·  Поднять ратио!  
vladvit
Стаж: 12 лет 8 мес.
Сообщений: 268
Ratio: 3,527
100%
ussr.gif
Спасибо!
Топик был перенесен из форума Other (Lossless) в форум Архив Музыки

Причина переноса: Нет сидов

Исправил релиз - напиши ЛС D0G, дав ссылку на релиз.
Если нет ответа 24 часа - нажми на кнопку "Обратить внимание модераторов".
Показать сообщения:   
Начать новую тему   Ответить на тему    Торрент-трекер NNM-Club -> Архив торрентов -> Архив Музыки Часовой пояс: GMT + 3
Страница 1 из 1