Классический форум-трекер
canvas not supported
Нас вместе: 4 079 097

Мастер со сломанными пальцами / Master with Cracked Fingers / Guang dong xiao lao hu (1972) DVDRip


 
 
RSS
Начать новую тему   Ответить на тему    Торрент-трекер NNM-Club -> Зарубежное кино -> Азиатское кино (HD*Rip/LQ, DVDRip, SATRip, VHSRip)
Автор Сообщение
FessDemon ®
Стаж: 9 лет 4 мес.
Сообщений: 3
Ratio: 5,817
Поблагодарили: 125
100%
ussr.gif
Мастер со сломанными пальцами / Master with Cracked Fingers / Guang dong xiao lao hu (1972) DVDRip
«As a boy he was taught the secrets of Kung Fu, now he will use them to avenge his father's death»
Год выпуска: 1972
Производство: Гонконг / Soon Lee Films
Жанр: Боевик, Драма, Комедия

Описание фильма:
В фильме Джеки Чан учится владеть самым смертельнум оружием на свете — своими руками и ногами, для того, что бы отомстить за смерть своего отца.
Он решает предпринять опасный поход в логово самой опасной в районе банды, которая в битвах не знает никаких правил, у банды есть предводитель, который не знает жалости ни к кому, а жаждет только крови...

Режиссер: Му Жу
Актеры: Джеки Чан, Сиу Тиен Юэнь, Дин Шек, Квок Чои Хон, Юэнь Бяо, Фенг Тиен, Енг Му квон, Кэм Чунг, Шао Лун Чианг, Чун Чин

Продолжительность: 01:18:28
Качество видео: DVDRip
Перевод: Многоголосый закадровый



Дата мировой премьеры: 12 марта 1981

Видео: MPEG-4 XviD, 640x320 (2.00:1), 25.000 fps, ~2296 Kb/s (0.448 bit/pixel)
Аудио: AC-3, 48.0 KHz, 2.0 ch, 192 Kb/s, CBR | Russian
Это первая картина, в которой Джеки Чан сыграл главную роль!
Код:
Общее
Полное имя                               : Мастер со сломанными пальцами.avi
Формат                                   : AVI
Формат/Информация                        : Audio Video Interleave
Размер файла                             : 1,37 Гбайт
Продолжительность                        : 1 ч. 18 м.
Общий поток                              : 2495 Кбит/сек
Программа кодирования                    : VirtualDubMod 1.5.4.1 (build 2178/release)
Библиотека кодирования                   : VirtualDubMod build 2178/release

Видео
Идентификатор                            : 0
Формат                                   : MPEG-4 Visual
Профиль формата                          : Advanced Simple@L5
Параметр BVOP формата                    : 1
Параметр QPel формата                    : Нет
Параметр GMC формата                     : Без точки перехода
Параметр матрицы формата                 : Выборочная
Идентификатор кодека                     : XVID
Идентификатор кодека/Подсказка           : XviD
Продолжительность                        : 1 ч. 18 м.
Битрейт                                  : 2296 Кбит/сек
Ширина                                   : 640 пикселей
Высота                                   : 320 пикселей
Соотношение сторон                       : 2,000
Частота кадров                           : 25,000 кадров/сек
Цветовое пространство                    : YUV
Субдискретизация насыщенности            : 4:2:0
Битовая глубина                          : 8 бит
Тип развёртки                            : Прогрессивная
Метод сжатия                             : С потерями
Бит/(Пиксели*Кадры)                      : 0.448
Размер потока                            : 1,26 Гбайт (92%)
Библиотека кодирования                   : XviD 1.2.0.dev47 (UTC 2006-11-01)

Аудио
Идентификатор                            : 1
Формат                                   : AC-3
Формат/Информация                        : Audio Coding 3
Расширение режима                        : CM (complete main)
Параметр Endianness формата              : Big
Идентификатор кодека                     : 2000
Продолжительность                        : 1 ч. 18 м.
Вид битрейта                             : Постоянный
Битрейт                                  : 192 Кбит/сек
Каналы                                   : 2 канала
Расположение каналов                     : Front: L R
Частота                                  : 48,0 КГц
Битовая глубина                          : 16 бит
Метод сжатия                             : С потерями
Задержка видео                           : 15 мс.
Размер потока                            : 108 Мбайт (8%)
Выравнивание                             : Разделение по промежуткам
Продолжительность промежутка             : 96  мс. (2,40 видеокадра)
Время предзагрузки промежутка            : 96  мс.
Скриншоты:


Реставрация от: Viсtоr
[NNM-Club.ru]_Master so slomannyimi pal'tsami.avi.torrent
 Торрент: Платиновая раздача  Зарегистрирован
 
Скачать


 Зарегистрирован:   03 Июн 2010 21:06:30
 Размер:   1,37 GB  (
 Рейтинг:   5 (Голосов: 32)
 Поблагодарили:   106
 Проверка:   Оформление проверено модератором 05 Июн 2010 01:23:23
Как cкачать  ·  Как раздать  ·  Правильно оформить  ·  Поднять ратио!  
Загрузка...
DaoDzen
 
Стаж: 12 лет 9 мес.
Сообщений: 512
Ratio: 15,368
Поблагодарили: 165
100%
russia.gif
это трешак
надо брать

_________________
Очень хочется гидроусилитель мозга. Чтобы без труда думать сложные мысли.
xupypr_cs
Стаж: 12 лет 4 мес.
Сообщений: 920
Ratio: 10,797
Поблагодарили: 29456
100%
Откуда: NoNaMe Club
nnm-club.gif
Помогу с раздачей

_________________
Если дарить, то самое лучшее....
Показать сообщения:   
Начать новую тему   Ответить на тему    Торрент-трекер NNM-Club -> Зарубежное кино -> Азиатское кино (HD*Rip/LQ, DVDRip, SATRip, VHSRip) Часовой пояс: GMT + 3
Страница 1 из 1