Классический форум-трекер
canvas not supported
Нас вместе: 4 093 669

Корпорация монстров / Monsters, Inc (2001) [720p] BDRip


Страницы:  1, 2  След. 
 
RSS
Начать новую тему   Ответить на тему    Торрент-трекер NNM-Club -> Мультфильмы -> Зарубежные Мультфильмы (HD, UHD, UHD-LQ)
Автор Сообщение
kAZ2242 ®
Стаж: 10 лет 6 мес.
Сообщений: 53
Ratio: 9,519
Раздал: 1,567 TB
Поблагодарили: 4342
100%
logo.gif
Корпорация монстров / Monsters, Inc (2001) BDRip
«We Think They Are Scary, But Really We Scare Them!»

Русское название: Корпорация монстров
Оригинальное название: Monsters, Inc.
Год выпуска: 2001
Жанр: Комедия, фэнтези, приключения, семейный
Производство: Disney, PIXAR / США

Описание:
Они монстры, но здесь они совсем не страшные, попадаются даже и милые. Живут они в параллельном мире в городе Монстрополисе. Жители города, забавные и совсем не злые чудища должны пугать детей, чтобы те кричали и плакали. Сила, которая выделяется при криках, визгах и плаче детей, преобразуется в электрическую энергию и дает свет, питает машины, лампочки и так далее. Смешнее всего, что даже самые опытные пугатели вроде синего рогатого медведя Джеймса П. Салливана, которого все зовут Салли, и его суматошного друга Майка Вазовски, круглого, как колобок, сами до ужаса боятся детишек! И когда однажды в их мир из нашего случайно пробирается бесстрашная и неистощимая на выдумки и каверзы двух-трехлетняя девочка Бу (так ее назвал Салливан), в Монстрополисе поднимается такой переполох, которого город чудищ еще не видел!

Режиссер: Питер Доктор, Дэвид Силверман / Pete Docter,David Silverman
Персонажи: Джон Гудман, Билли Кристал, Мэри Гиббс, Стив Бушеми, Джеймс Коберн, Дженнифер Тилли

Продолжительность: 01:32:15
Перевод: Дублированный

Видеокодек: MPEG-4 AVC/H.264
Битрейт видео: ~5273 Kbps
Размер кадра: 1280 x 688
Качество видео: BDRip
Аудиокодек: AC3 5.1
Битрейт аудио: 448 Kbps

Рейтинги:
General
Complete name : D:\фильмы HD\Корпорация монстров.mkv
Format : Matroska
File size : 3.69 GiB
Duration : 1h 32mn
Overall bit rate : 5 723 Kbps
Encoded date : UTC 2010-03-03 15:57:04
Writing application : mkvmerge v3.2.0 ('Beginnings') built on Feb 12 2010 16:46:17
Writing library : libebml v0.7.9 + libmatroska v0.8.1

Video
ID : 1
Format : AVC
Format/Info : Advanced Video Codec
Format profile : High@L3.1
Format settings, CABAC : Yes
Format settings, ReFrames : 5 frames
Muxing mode : Container profile=Unknown@3.1
Codec ID : V_MPEG4/ISO/AVC
Duration : 1h 32mn
Bit rate : 5 161 Kbps
Nominal bit rate : 5 273 Kbps
Width : 1 280 pixels
Height : 688 pixels
Display aspect ratio : 1.860
Frame rate : 23.976 fps
Resolution : 8 bits
Colorimetry : 4:2:0
Scan type : Progressive
Bits/(Pixel*Frame) : 0.244
Stream size : 3.32 GiB (90%)
Writing library : x264 core 67 r1153 7b6ce6a
Encoding settings : cabac=1 / ref=5 / deblock=1:0:0 / analyse=0x3:0x113 / me=umh / subme=7 / psy_rd=1.0:0.0 / mixed_ref=1 / me_range=16 / chroma_me=1 / trellis=1 / 8x8dct=1 / cqm=0 / deadzone=21,11 / chroma_qp_offset=-2 / threads=12 / nr=0 / decimate=1 / mbaff=0 / bframes=3 / b_pyramid=1 / b_adapt=1 / b_bias=0 / direct=1 / wpredb=1 / keyint=250 / keyint_min=25 / scenecut=40 / rc=2pass / bitrate=5273 / ratetol=1.0 / qcomp=0.60 / qpmin=10 / qpmax=51 / qpstep=4 / cplxblur=20.0 / qblur=0.5 / ip_ratio=1.40 / pb_ratio=1.30 / aq=1:1.00
Language : English

Audio
ID : 2
Format : AC-3
Format/Info : Audio Coding 3
Codec ID : A_AC3
Duration : 1h 32mn
Bit rate mode : Constant
Bit rate : 448 Kbps
Channel(s) : 6 channels
Channel positions : Front: L C R, Surround: L R, LFE
Sampling rate : 48.0 KHz
Stream size : 296 MiB (8%)
Скриншоты:


Время раздачи: 24/7
Реставрация от: minerale
[NNM-Club.ru]_Korporatsiya monstrov.mkv.torrent
 Торрент: Платиновая раздача  Зарегистрирован
 
Скачать


 Зарегистрирован:   08 Июн 2010 20:45:00
 Размер:   3,69 GB  (
 Рейтинг:   4,9 (Голосов: 195)
 Поблагодарили:   709
 Проверка:   Оформление проверено модератором 11 Июн 2010 19:32:03
Как cкачать  ·  Как раздать  ·  Правильно оформить  ·  Поднять ратио!  
milk28
Стаж: 9 лет 11 мес.
Сообщений: 160
Ratio: 6,392
Поблагодарили: 94
48.39%
ukraine.gif
Афигенный мульт!Добрый и красиво сделанный! =)
Dark Spirit Multimedia
Стаж: 10 лет 8 мес.
Сообщений: 462
Ratio: 9,95
Поблагодарили: 5916
100%
Откуда: Калининград
russia.gif
Большое спасибо за отличное качество !!! :респект:
214sergey
Стаж: 9 лет
Сообщений: 2
Ratio: 1,756
4.02%
russia.gif
Отличный мультик и отличное качество.
ayakovchuk
Стаж: 10 лет
Сообщений: 28
Ratio: 4,651
100%
Огромное спасибо за мультфильм.
arko77
Стаж: 8 лет 1 мес.
Сообщений: 311
Ratio: 24,841
44.94%
Большое спасибо ... !!! Шикарррное качество ... !!!
vovan_torrent
Стаж: 9 лет 3 мес.
Сообщений: 11
Ratio: 3,558
100%
Ребят пожалуйста дайте скорости, а то скорость диал-апа
магистралекс
Стаж: 9 лет 1 мес.
Сообщений: 49
Ratio: 25,249
100%
Откуда: Тамбов
russia.gif
спасибо
elizovetta2004
Стаж: 7 лет 1 мес.
Сообщений: 3
Ratio: 0,895
30.43%
спасибо посмотрела в первый раз мне очень понравилось качество очень хорошие другими словами отличное большое при большое спасидо
den_ignat79
Стаж: 10 лет 3 мес.
Сообщений: 36
Ratio: 24,329
100%
Откуда: TVER
russia.gif
дочка очень довольна

_________________
цени момент!!
трезорыч
Стаж: 7 лет 6 мес.
Сообщений: 2713
Ratio: 75,317
100%
Откуда: Из Интернета
russia.gif
Спасибо ! Самый добрый ужастик в мире ! качество отменное ! :клево:
Sed10rd
Стаж: 6 лет 3 мес.
Сообщений: 23
Ratio: 3,35
100%
ussr.gif
Класс, давно искал рип в таком размере. Спасибо... !!!http://nnmclub.to/forum/posting.php#
Troyman
Стаж: 6 лет 9 мес.
Сообщений: 78
Ratio: 26,79
100%
Спасибо за раздачу.
ValeryZ
Стаж: 9 лет
Сообщений: 400
Ratio: 230,238
Поблагодарили: 17504
100%
Как давно не пересматривал... Спасибо

_________________
Мои инвестиции 4-9% в мес: 1profit.wordpress.com
Valentin4842
Стаж: 10 лет 4 мес.
Сообщений: 80
Ratio: 33,049
100%
Откуда: сами мы не местные
albania.gif
СПАСИБО !!! Классный мульт :респект: !!!

_________________
Не говорите что мне делать и я не скажу куда вам идти.
Показать сообщения:   
Начать новую тему   Ответить на тему    Торрент-трекер NNM-Club -> Мультфильмы -> Зарубежные Мультфильмы (HD, UHD, UHD-LQ) Часовой пояс: GMT + 3
Страницы:  1, 2  След.
Страница 1 из 2