Классический форум-трекер
canvas not supported
Нас вместе: 4 094 203

Корпорация Монстров / Monsters, Inc (2001) [1080p] BDRip


 
 
RSS
Начать новую тему   Ответить на тему    Торрент-трекер NNM-Club -> Мультфильмы -> Зарубежные Мультфильмы (HD, UHD, UHD-LQ)
Автор Сообщение
Lubert ®
Стаж: 10 лет 6 мес.
Сообщений: 48
Ratio: 84,429
Поблагодарили: 1628
100%
russia.gif
Корпорация Монстров / Monsters, Inc (2001) 1080p mkv
Год выпуска: 2001
Жанр: Компьютерная анимация, Детский
Производство: Disney, PIXAR / США

Описание:
Склизский гад в сливном бачке, мохнатый зверь, похожий на чудовище из «Аленького цветочка», гигантские мокрицы под кроватью — все они существуют на самом деле. Все, что им нужно — пугать детей, потому что из детских криков они получают электричество
Полнометражный мультфильм рассказыает о кризисах в мире монстров, их жизни. Но однажды вся мирная жизнь монстров оказывается под угрозой: в их мир попадает ребенок. А с детьми столько хлопот, что они могут довести даже монстров

Режиссер: Pete Docter (Питер Доктор), David Silverman (Дэвид Силверман)
Персонажи: Салли, Майк Вазовски, Бу (Страшилка), Рэндалл Богс, Генри, Селия, Роз, Снежный человек

Продолжительность: 01:32:15
Перевод: Дублированный


Страница Википедии

Дата мировой премьеры: 28 Октября 2001
Дата российской премьеры: 21 Марта 2002
Дата выхода Blu-Ray релиза: 22 Октября 2009

Качество видео: BDRip
Размер кадра: 1920x1080
Видеокодек: MPEG-4 AVC/H.264
Битрейт видео: ~23.4 Mbps
Аудиодорожка 1 Rus: AC3, 5.1, 640 Kbps
Аудиодорожка 2 Eng: DTS, 5.1, 1510 Kbps
General

Complete name : /home/*****/Рабочий стол/Видео/HD/Monsters, Inc (Корпорация монстров) Pete Docter 2001.mkv
Format : Matroska
File size : 16.8 GiB
Duration : 1h 32mn
Overall bit rate : 26.1 Mbps
Encoded date : UTC 2010-05-21 19:31:14
Writing application : mkvmerge v3.3.0 ('Language') built on Mar 24 2010 23:36:06
Writing library : libebml v0.7.8 + libmatroska v0.8.1

Video
ID : 1
Format : AVC
Format/Info : Advanced Video Codec
Format profile : High@L4.1
Format settings, CABAC : Yes
Format settings, ReFrames : 4 frames
Muxing mode : Container profile=Unknown@4.1
Codec ID : V_MPEG4/ISO/AVC
Duration : 1h 32mn
Bit rate : 23.4 Mbps
Width : 1 920 pixels
Height : 1 080 pixels
Display aspect ratio : 16:9
Frame rate : 23.976 fps
Resolution : 8 bits
Colorimetry : 4:2:0
Scan type : Progressive
Bits/(Pixel*Frame) : 0.471
Stream size : 15.1 GiB (90%)
Language : English
Color primaries : BT.709-5, BT.1361, IEC 61966-2-4, SMPTE RP177
Transfer characteristics : BT.709-5, BT.1361
Matrix coefficients : BT.709-5, BT.1361, IEC 61966-2-4 709, SMPTE RP177

Audio #1
ID : 2
Format : AC-3
Format/Info : Audio Coding 3
Format_Settings_ModeExtension : CM (complete main)
Codec ID : A_AC3
Duration : 1h 32mn
Bit rate mode : Constant
Bit rate : 640 Kbps
Channel(s) : 6 channels
Channel positions : Front: L C R, Side: L R, LFE
Sampling rate : 48.0 KHz
Stream size : 422 MiB (2%)
Language : Russian

Audio #2
ID : 3
Format : DTS
Format/Info : Digital Theater Systems
Format profile : ES
Codec ID : A_DTS
Duration : 1h 32mn
Bit rate mode : Constant
Bit rate : 1 510 Kbps
Channel(s) : 6 channels
Channel positions : Front: L C R, Side: L R, LFE
Sampling rate : 48.0 KHz
Resolution : 24 bits
Video delay : 10ms
Stream size : 996 MiB (6%)
Language : English

Menu
00:00:00.000 : en:Chapter 00
00:01:33.092 : en:Chapter 01
00:03:07.604 : en:Chapter 02
00:04:51.124 : en:Chapter 03
00:07:16.936 : en:Chapter 04
00:09:11.509 : en:Chapter 05
00:10:43.601 : en:Chapter 06
00:11:53.796 : en:Chapter 07
00:17:25.794 : en:Chapter 08
00:20:06.079 : en:Chapter 09
00:22:03.780 : en:Chapter 10
00:25:48.421 : en:Chapter 11
00:28:34.963 : en:Chapter 12
00:31:06.489 : en:Chapter 13
00:34:49.962 : en:Chapter 14
00:36:55.630 : en:Chapter 15
00:38:50.286 : en:Chapter 16
00:40:27.883 : en:Chapter 17
00:43:34.278 : en:Chapter 18
00:45:29.726 : en:Chapter 19
00:48:07.426 : en:Chapter 20
00:50:37.159 : en:Chapter 21
00:54:41.277 : en:Chapter 22
00:57:29.445 : en:Chapter 23
01:03:42.026 : en:Chapter 24
01:06:25.022 : en:Chapter 25
01:07:26.375 : en:Chapter 26
01:13:52.135 : en:Chapter 27
01:17:49.581 : en:Chapter 28
01:21:24.921 : en:Chapter 29
01:24:07.959 : en:Chapter 30
01:25:06.226 : en:Chapter 31
Скриншоты:


Время раздачи: 24/7
Реставрация от: minerale
[NNM-Club.ru]_Monsters, Inc (Korporatsiya monstrov) 2001.mkv.torrent
 Торрент: Платиновая раздача  Зарегистрирован
 
Скачать


 Зарегистрирован:   16 Июл 2010 00:12:08
 Размер:   16,8 GB  (
 Рейтинг:   4,9 (Голосов: 56)
 Поблагодарили:   216
 Проверка:   Оформление проверено модератором 25 Июл 2010 10:05:08
Как cкачать  ·  Как раздать  ·  Правильно оформить  ·  Поднять ратио!  
burvar
Стаж: 9 лет 4 мес.
Сообщений: 10
Ratio: 4,58
100%
Дайте раздачу!!! Плиз!!!
Показать сообщения:   
Начать новую тему   Ответить на тему    Торрент-трекер NNM-Club -> Мультфильмы -> Зарубежные Мультфильмы (HD, UHD, UHD-LQ) Часовой пояс: GMT + 3
Страница 1 из 1