Классический форум-трекер
canvas not supported
Нас вместе: 4 078 123

Проект А / Project A / «A» gai wak (1983) DVDRip


 
 
RSS
Начать новую тему   Ответить на тему    Торрент-трекер NNM-Club -> Зарубежное кино -> Азиатское кино (HD*Rip/LQ, DVDRip, SATRip, VHSRip)
Автор Сообщение
Веталюга ®
Стаж: 9 лет 7 мес.
Сообщений: 13
Ratio: 8,627
Раздал: 456 GB
Поблагодарили: 1971
100%
ukraine.gif
Проект А / Project A / «A» gai wak (1983) DVDRip
«Nonstop Action On The High Seas!»
Год выпуска: 1983
Производство: Гонконг / Authority Films, Golden Harvest Company, Paragon Films Ltd.
Жанр: Боевик, Комедия

Описание фильма:
Гонконг начала ХХ века. На китайском море свирепствуют пираты под предводительством зловещего пирата Ло. Все свои надежды правительство возлагает на специально разработанный план борьбы с пиратами под кодовым названием «Проект А».
Но Ло всегда на шаг опережает власти, подрывает их корабли, и «проект» оказывается под угрозой срыва. Его выполнение берут на себя борец береговой охраны по кличке «Дракон» и его товарищи...

Режиссер: Джеки Чан, Саммо Хунг Кам-Бо
Актеры: Джеки Чан, Саммо Хунг Кам-Бо, Юэнь Бяо, Дик Вэй, Марс, Винни Вонг, По Таи, Ву Лонг Чунг, Хой Сан Ли, Хой-Шан Кван

Продолжительность: 01:40:57
Качество видео: DVDRip
Перевод: Двухголосый закадровый



Дата мировой премьеры: 22 декабря 1983

Видео: MPEG-4 XviD, 720x304 (2.35:1), 25.000 fps, ~1315 Kb/s (0.240 bit/pixel)
Аудио#1: AC-3, 48.0 KHz, 5.1 ch, 224 Kb/s, CBR | Russian (DVO)
Аудио#2: AC-3, 48.0 KHz, 5.1 ch, 448 Kb/s, CBR | English (DUB)
Код:
Общее
Полное имя                               : Project A (1983).avi
Формат                                   : AVI
Формат/Информация                        : Audio Video Interleave
Размер файла                             : 1,41 Гбайт
Продолжительность                        : 1 ч. 40 м.
Общий поток                              : 1995 Кбит/сек
Программа кодирования                    : VirtualDubMod 1.5.4.1 (build 2178/release)
Библиотека кодирования                   : VirtualDubMod build 2178/release

Видео
Идентификатор                            : 0
Формат                                   : MPEG-4 Visual
Профиль формата                          : Advanced Simple@L5
Параметр BVOP формата                    : 1
Параметр QPel формата                    : Нет
Параметр GMC формата                     : Без точки перехода
Параметр матрицы формата                 : Выборочная
Идентификатор кодека                     : XVID
Идентификатор кодека/Подсказка           : XviD
Продолжительность                        : 1 ч. 40 м.
Битрейт                                  : 1315 Кбит/сек
Ширина                                   : 720 пикселей
Высота                                   : 304 пикселя
Соотношение сторон                       : 2,35:1
Частота кадров                           : 25,000 кадров/сек
Цветовое пространство                    : YUV
Субдискретизация насыщенности            : 4:2:0
Битовая глубина                          : 8 бит
Тип развёртки                            : Прогрессивная
Метод сжатия                             : С потерями
Бит/(Пиксели*Кадры)                      : 0.240
Размер потока                            : 950 Мбайт (66%)
Библиотека кодирования                   : XviD 1.2.0.dev47 (UTC 2006-11-01)

Аудио #1
Идентификатор                            : 1
Формат                                   : AC-3
Формат/Информация                        : Audio Coding 3
Расширение режима                        : CM (complete main)
Параметр Endianness формата              : Big
Идентификатор кодека                     : 2000
Продолжительность                        : 1 ч. 40 м.
Вид битрейта                             : Постоянный
Битрейт                                  : 224 Кбит/сек
Каналы                                   : 6 каналов
Расположение каналов                     : Front: L C R, Side: L R, LFE
Частота                                  : 48,0 КГц
Битовая глубина                          : 16 бит
Метод сжатия                             : С потерями
Размер потока                            : 161 Мбайт (11%)
Выравнивание                             : Разделение по промежуткам
Продолжительность промежутка             : 96  мс. (2,41 видеокадра)
Время предзагрузки промежутка            : 96  мс.
Язык                                     : Russian

Аудио #2
Идентификатор                            : 2
Формат                                   : AC-3
Формат/Информация                        : Audio Coding 3
Расширение режима                        : CM (complete main)
Параметр Endianness формата              : Big
Идентификатор кодека                     : 2000
Продолжительность                        : 1 ч. 40 м.
Вид битрейта                             : Постоянный
Битрейт                                  : 448 Кбит/сек
Каналы                                   : 6 каналов
Расположение каналов                     : Front: L C R, Side: L R, LFE
Частота                                  : 48,0 КГц
Битовая глубина                          : 16 бит
Метод сжатия                             : С потерями
Размер потока                            : 323 Мбайт (22%)
Выравнивание                             : Разделение по промежуткам
Продолжительность промежутка             : 96  мс. (2,40 видеокадра)
Время предзагрузки промежутка            : 96  мс.
Язык                                     : English
Скриншоты:


Время раздачи: 24/7 - круглосуточно (по возможности)
Реставрация от: Viсtоr
[NNM-Club.ru]_Project A (1983).avi.torrent
 Торрент: Платиновая раздача  Зарегистрирован
 
Скачать


 Зарегистрирован:   23 Июл 2010 14:08:41
 Размер:   1,41 GB  (
 Рейтинг:   5 (Голосов: 21)
 Поблагодарили:   72
 Проверка:   Оформление проверено модератором 23 Июл 2010 18:13:29
Как cкачать  ·  Как раздать  ·  Правильно оформить  ·  Поднять ратио!  
Показать сообщения:   
Начать новую тему   Ответить на тему    Торрент-трекер NNM-Club -> Зарубежное кино -> Азиатское кино (HD*Rip/LQ, DVDRip, SATRip, VHSRip) Часовой пояс: GMT + 3
Страница 1 из 1