Классический форум-трекер
canvas not supported
Нас вместе: 4 077 873

Проект А: Часть 2 / Project A Part II / «A» gai wak 2 (1987) DVDRip


 
 
RSS
Начать новую тему   Ответить на тему    Торрент-трекер NNM-Club -> Зарубежное кино -> Азиатское кино (HD*Rip/LQ, DVDRip, SATRip, VHSRip)
Автор Сообщение
Веталюга ®
Стаж: 9 лет 7 мес.
Сообщений: 13
Ratio: 8,627
Раздал: 456 GB
Поблагодарили: 1970
100%
ukraine.gif
Проект А: Часть 2 / Project A Part II / «A» gai wak 2 (1987) DVDRip
«This A Is For Action!»
Год выпуска: 1987
Производство: Гонконг, США / Golden Way Films Ltd., Paragon Films Ltd.
Жанр: Боевик, Комедия, Криминал

Описание фильма:
Отважный Дракон Ма (Джеки Чан), прославившийся благодаря уничтожению пиратской шайки Ло Сэм По, получает новое назначение — его делают начальником округа. Основная причина этого назначения состоит в том, что власти сомневаются в чистоплотности его предшественника Чуна. В результате мастерски выполненной подставы Дракона арестовывают, но он не прекращает попыток разоблачить Чуна...

Режиссер: Джеки Чан
Актеры: Джеки Чан, Мэгги Чун, Розамунд Кван, Карина Лау, Дэвид Лам, Билл Тун, Сэм Луи, Реджина Кент, Йао Лин Чен, Кенни Хо

Продолжительность: 01:42:00
Качество видео: DVDRip
Перевод: Двухголосый закадровый



Дата мировой премьеры: 19 августа 1987
Дата выхода DVD релиза: 12 февраля 2009, «Синема Трейд»

Видео: MPEG-4 XviD, 720x304 (2.35:1), 25.000 fps, ~1079 Kb/s (0.197 bit/pixel)
Аудио#1: AC-3, 48.0 KHz, 5.1 ch, 448 Kb/s, CBR | Russian (DVO)
Аудио#2: AC-3, 48.0 KHz, 5.1 ch, 448 Kb/s, CBR | English (DUB)
Код:
Общее
Полное имя                               : Project A Part II (1987).avi
Формат                                   : AVI
Формат/Информация                        : Audio Video Interleave
Размер файла                             : 1,41 Гбайт
Продолжительность                        : 1 ч. 42 м.
Общий поток                              : 1983 Кбит/сек
Программа кодирования                    : VirtualDubMod 1.5.4.1 (build 2178/release)
Библиотека кодирования                   : VirtualDubMod build 2178/release

Видео
Идентификатор                            : 0
Формат                                   : MPEG-4 Visual
Профиль формата                          : Advanced Simple@L5
Параметр BVOP формата                    : 1
Параметр QPel формата                    : Нет
Параметр GMC формата                     : Без точки перехода
Параметр матрицы формата                 : Выборочная
Идентификатор кодека                     : XVID
Идентификатор кодека/Подсказка           : XviD
Продолжительность                        : 1 ч. 42 м.
Битрейт                                  : 1079 Кбит/сек
Ширина                                   : 720 пикселей
Высота                                   : 304 пикселя
Соотношение сторон                       : 2,35:1
Частота кадров                           : 25,000 кадров/сек
Цветовое пространство                    : YUV
Субдискретизация насыщенности            : 4:2:0
Битовая глубина                          : 8 бит
Тип развёртки                            : Прогрессивная
Метод сжатия                             : С потерями
Бит/(Пиксели*Кадры)                      : 0.197
Размер потока                            : 787 Мбайт (54%)
Библиотека кодирования                   : XviD 1.2.0.dev47 (UTC 2006-11-01)

Аудио #1
Идентификатор                            : 1
Формат                                   : AC-3
Формат/Информация                        : Audio Coding 3
Расширение режима                        : CM (complete main)
Параметр Endianness формата              : Big
Идентификатор кодека                     : 2000
Продолжительность                        : 1 ч. 41 м.
Вид битрейта                             : Постоянный
Битрейт                                  : 448 Кбит/сек
Каналы                                   : 6 каналов
Расположение каналов                     : Front: L C R, Side: L R, LFE
Частота                                  : 48,0 КГц
Битовая глубина                          : 16 бит
Метод сжатия                             : С потерями
Задержка видео                           : 2 с. 500 мс.
Размер потока                            : 326 Мбайт (23%)
Выравнивание                             : Разделение по промежуткам
Продолжительность промежутка             : 96  мс. (2,41 видеокадра)
Время предзагрузки промежутка            : 96  мс.
Язык                                     : Russian

Аудио #2
Идентификатор                            : 2
Формат                                   : AC-3
Формат/Информация                        : Audio Coding 3
Расширение режима                        : CM (complete main)
Параметр Endianness формата              : Big
Идентификатор кодека                     : 2000
Продолжительность                        : 1 ч. 42 м.
Вид битрейта                             : Постоянный
Битрейт                                  : 448 Кбит/сек
Каналы                                   : 6 каналов
Расположение каналов                     : Front: L C R, Side: L R, LFE
Частота                                  : 48,0 КГц
Битовая глубина                          : 16 бит
Метод сжатия                             : С потерями
Задержка видео                           : 80 мс.
Размер потока                            : 327 Мбайт (23%)
Выравнивание                             : Разделение по промежуткам
Продолжительность промежутка             : 96  мс. (2,40 видеокадра)
Время предзагрузки промежутка            : 96  мс.
Язык                                     : English
Скриншоты:


Время раздачи: 24/7 - круглосуточно (по возможности)
Реставрация от: Viсtоr
[NNM-Club.ru]_Project A Part II (1987).avi.torrent
 Торрент: Платиновая раздача  Зарегистрирован
 
Скачать


 Зарегистрирован:   24 Июл 2010 15:17:46
 Размер:   1,41 GB  (
 Рейтинг:   5 (Голосов: 18)
 Поблагодарили:   69
 Проверка:   Оформление проверено модератором 25 Июл 2010 09:41:46
Как cкачать  ·  Как раздать  ·  Правильно оформить  ·  Поднять ратио!  
Показать сообщения:   
Начать новую тему   Ответить на тему    Торрент-трекер NNM-Club -> Зарубежное кино -> Азиатское кино (HD*Rip/LQ, DVDRip, SATRip, VHSRip) Часовой пояс: GMT + 3
Страница 1 из 1