Классический форум-трекер
canvas not supported
Нас вместе: 4 077 757

Дидюля - Дискография (2000-2010) [FLAC|Lossless]<Instrumental, Flamenco>


Страницы:   Пред.  1, 2 
 
RSS
Начать новую тему   Ответить на тему    Торрент-трекер NNM-Club -> Other Styles -> Instrumental (Lossless)
Автор Сообщение
tigran_va​rdanyan​ ®
Стаж: 9 лет 4 мес.
Сообщений: 24
Ratio: 12,392
Поблагодарили: 2670
73.32%
Откуда: Yerevan
armenia.gif
Дидюля - Дискография (2000-2010)

Первую гитару Валерий получил в пять лет в подарок от своей матери. С этого момента он начал «экспериментировать со звуком и гитарой»: ставил на гитару звукосниматель, датчик, подключал инструмент к самодельному усилителю. Вместе с друзьями посещал концерты, наблюдал, как играют на свадьбах.[3] Позже был принят в качестве третьего гитариста в вокально-инструментальный ансамбль «Алые Зори» под руководством Николая Хитрика. Концерты проводились в разных городах, колхозах и совхозах, а позже в кооперативном ресторане.
После распада ансамбля Дидюля занялся звукорежиссёрской работой в гродненском ансамбле танца и пляски «Белые Росы», где играли, пели и танцевали в основном польские, белорусские, украинские, цыганские народные танцы и мотивы. В составе этого коллектива Дидюля впервые побывал с гастролями в Европе — в Испании, Италии, Польше, Швейцарии, Франции, Германии. В Испании он познакомился со стилем фламенко — традиционным испанским музыкально-танцевальным стилем, который и повлиял на его окончательное становление (в творчестве Дидюли отслеживаются некоторые пассажи и ритмы, характерные для фламенко и других испанских направлений, но все же фламенко эту музыку назвать нельзя).
Валерий Дидюля являлся продюсером классического гитариста Дениса Асимовича, потерявшего зрение в раннем возрасте.

Год: 2000-2010
Жанр: Instrumental, Flamenco
Продолжительность: 12:32:02

Кодек: FLAC
Битрейт: Lossless
Тип битрейта: VBR

Альбомы:
Трек лист:
1. Фламенко
2. Айседора
3. Водопад
4. Жасмин
5. Румба
6. Испания
7. Море
8. Ритмо
9. Русская
10. Бездна
11. Фанданго
12. День
13. Посвящение
Продолжительность: (00:51:43)
AUDIOCHECKER v2.0 beta (build 457) - by Dester - opdester@freemail.hu
~~~~~~~~~~~~~~~~~~~~~~~~~~~~~~~~~~
-=== DO NOT EDIT THIS FILE! ===-

Path: ...\2000 - Фламенко

001 -=- 01 - Фламенко.flac -=- CDDA (100%)
002 -=- 02 - Айседора.flac -=- CDDA (100%)
003 -=- 03 - Водопад.flac -=- CDDA (99%)
004 -=- 04 - Жасмин.flac -=- CDDA (100%)
005 -=- 05 - Румба.flac -=- CDDA (100%)
006 -=- 06 - Испания.flac -=- CDDA (100%)
007 -=- 07 - Море.flac -=- CDDA (100%)
008 -=- 08 - Ритмо.flac -=- CDDA (100%)
009 -=- 09 - Русская.flac -=- CDDA (100%)
010 -=- 10 - Бездна.flac -=- CDDA (100%)
011 -=- 11 - Фанданго.flac -=- CDDA (100%)
012 -=- 12 - День.flac -=- CDDA (100%)
013 -=- 13 - Посвящение.flac -=- CDDA (100%)

Summary 99.92% CDDA

186193652
Exact Audio Copy V0.99 prebeta 5 from 4. May 2009

Отчёт EAC об извлечении, выполненном 6. марта 2010, 20:18

ДиДюЛя / Фламенко

Дисковод: PIONEER DVD-RW DVR-111L Adapter: 0 ID: 1

Режим чтения : Достоверность
Использование точного потока : Да
Отключение кэша аудио : Да
Использование указателей C2 : Нет

Комбинированное смещение чтения/записи : 48
Способность читать области Lead-in и Lead-out : Нет
Заполнение пропущенных сэмплов тишиной : Да
Удаление блоков с тишиной в начале и конце : Нет
При вычислениях CRC использовались нулевые сэмплы : Да
Интерфейс : Встроенный Win32-интерфейс для Win NT/2000
Обработка зазоров : Добавлено к предыдущему треку

Выходной формат : Пользовательский кодировщик
Выбранный битрейт : 1024 kBit/s
Качество : Высокий
Добавление ID3-тэга : Да
Утилита сжатия : C:\Program Files\Exact Audio Copy\FLAC\FLAC.EXE
Дополнительные параметры : -8 -V -T "ARTIST=%a" -T "TITLE=%t" -T "ALBUM=%g" -T "DATE=%y" -T "TRACKNUMBER=%n" -T "GENRE=%m" -T "COMMENT=%e" %s -o %d

TOC извлечённого CD

Трек | Старт | Длительность | Начальный сектор | Конечный сектор
---------------------------------------------------------------------
1 | 0:00.00 | 2:45.45 | 0 | 12419
2 | 2:45.45 | 4:07.28 | 12420 | 30972
3 | 6:52.73 | 4:18.28 | 30973 | 50350
4 | 11:11.26 | 3:30.17 | 50351 | 66117
5 | 14:41.43 | 5:44.49 | 66118 | 91966
6 | 20:26.17 | 2:52.53 | 91967 | 104919
7 | 23:18.70 | 2:46.17 | 104920 | 117386
8 | 26:05.12 | 4:45.58 | 117387 | 138819
9 | 30:50.70 | 4:34.69 | 138820 | 159438
10 | 35:25.64 | 3:30.41 | 159439 | 175229
11 | 38:56.30 | 3:03.61 | 175230 | 189015
12 | 42:00.16 | 6:51.46 | 189016 | 219886
13 | 48:51.62 | 2:22.19 | 219887 | 230555

Трек 1

Имя файла C:\ДиДюЛя - Фламенко\01 ДиДюЛя - Фламенко.wav

Длина предзазора 0:00:02.00

Пиковый уровень 97.9 %
Качество трека 100.0 %
CRC теста AFC58FE0
CRC копии AFC58FE0
Копирование... OK

Трек 2

Имя файла C:\ДиДюЛя - Фламенко\02 ДиДюЛя - Айседора.wav

Пиковый уровень 97.9 %
Качество трека 99.9 %
CRC теста B8FAF4D3
CRC копии B8FAF4D3
Копирование... OK

Трек 3

Имя файла C:\ДиДюЛя - Фламенко\03 ДиДюЛя - Водопад.wav

Пиковый уровень 97.9 %
Качество трека 99.9 %
CRC теста 6F7E067F
CRC копии 6F7E067F
Копирование... OK

Трек 4

Имя файла C:\ДиДюЛя - Фламенко\04 ДиДюЛя - Жасмин.wav

Пиковый уровень 97.9 %
Качество трека 100.0 %
CRC теста 801B2557
CRC копии 801B2557
Копирование... OK

Трек 5

Имя файла C:\ДиДюЛя - Фламенко\05 ДиДюЛя - Румба.wav

Пиковый уровень 97.9 %
Качество трека 100.0 %
CRC теста 95620F8D
CRC копии 95620F8D
Копирование... OK

Трек 6

Имя файла C:\ДиДюЛя - Фламенко\06 ДиДюЛя - Испания.wav

Пиковый уровень 97.9 %
Качество трека 99.9 %
CRC теста 11233145
CRC копии 11233145
Копирование... OK

Трек 7

Имя файла C:\ДиДюЛя - Фламенко\07 ДиДюЛя - Море.wav

Пиковый уровень 97.9 %
Качество трека 100.0 %
CRC теста 23597BBA
CRC копии 23597BBA
Копирование... OK

Трек 8

Имя файла C:\ДиДюЛя - Фламенко\08 ДиДюЛя - Ритмо.wav

Пиковый уровень 97.9 %
Качество трека 100.0 %
CRC теста 2E3DA817
CRC копии 2E3DA817
Копирование... OK

Трек 9

Имя файла C:\ДиДюЛя - Фламенко\09 ДиДюЛя - Русская.wav

Пиковый уровень 97.9 %
Качество трека 100.0 %
CRC теста BE4C59B1
CRC копии BE4C59B1
Копирование... OK

Трек 10

Имя файла C:\ДиДюЛя - Фламенко\10 ДиДюЛя - Бездна.wav

Пиковый уровень 97.9 %
Качество трека 99.9 %
CRC теста AB4FCDC6
CRC копии AB4FCDC6
Копирование... OK

Трек 11

Имя файла C:\ДиДюЛя - Фламенко\11 ДиДюЛя - Фанданго.wav

Пиковый уровень 97.9 %
Качество трека 100.0 %
CRC теста 1245029D
CRC копии 1245029D
Копирование... OK

Трек 12

Имя файла C:\ДиДюЛя - Фламенко\12 ДиДюЛя - День.wav

Пиковый уровень 97.9 %
Качество трека 100.0 %
CRC теста BCCE5C55
CRC копии BCCE5C55
Копирование... OK

Трек 13

Имя файла C:\ДиДюЛя - Фламенко\13 ДиДюЛя - Посвящение.wav

Пиковый уровень 97.9 %
Качество трека 100.0 %
CRC теста 1E46667B
CRC копии 1E46667B
Копирование... OK

Ошибок не произошло

Конец отчёта
Трек лист:
01. Arabica (5:36)
02. На побережье (3:05)
03. Лейла (4:35)
04. Ветер (3:48)
05. День Рождения (4:08)
06. По течению (5:12)
07. Чаппа (4:48)
08. Гром (3:45)
09. Fashion (6:50)
10. Полет на Меркурий (5:41)
11. Мираж (7:02)
12. Вверх (5:54)
13. Дорога в Багдад (5:23)
14. Кофе утром (4:35)
15. Мои печали и радости (4:56)
Продолжительность: (01:15:13)
AUDIOCHECKER v2.0 beta (build 457) - by Dester - opdester@freemail.hu
~~~~~~~~~~~~~~~~~~~~~~~~~~~~~~~~~~
-=== DO NOT EDIT THIS FILE! ===-

Path: ...\2002 - Дорога В Багдад

001 -=- 01 - Arabika.flac -=- CDDA (100%)
002 -=- 02 - На Побережье.flac -=- CDDA (100%)
003 -=- 03 - Лейла.flac -=- CDDA (100%)
004 -=- 04 - Ветер.flac -=- CDDA (100%)
005 -=- 05 - День Рождения.flac -=- CDDA (100%)
006 -=- 06 - По Течению.flac -=- CDDA (100%)
007 -=- 07 - Чаппа.flac -=- CDDA (100%)
008 -=- 08 - Гром.flac -=- CDDA (100%)
009 -=- 09 - Fashion.flac -=- CDDA (100%)
010 -=- 10 - Полёт На Меркурий.flac -=- CDDA (100%)
011 -=- 11 - Мираж.flac -=- CDDA (100%)
012 -=- 12 - Вверх.flac -=- CDDA (100%)
013 -=- 13 - Дорога В Багдад.flac -=- CDDA (100%)
014 -=- 14 - Кофе Утром.flac -=- CDDA (100%)
015 -=- 15 - Мои Печали И Радости.flac -=- CDDA (99%)

Summary 99.93% CDDA

42848868
Exact Audio Copy V0.99 prebeta 5 from 4. May 2009

Отчёт EAC об извлечении, выполненном 6. марта 2010, 16:42

ДиДюЛя / Дорога в Багдад

Дисковод: LITE-ON DVDRW SH-16A7S Adapter: 2 ID: 0

Режим чтения : Достоверность
Использование точного потока : Да
Отключение кэша аудио : Да
Использование указателей C2 : Нет

Комбинированное смещение чтения/записи : 6
Способность читать области Lead-in и Lead-out : Нет
Заполнение пропущенных сэмплов тишиной : Да
Удаление блоков с тишиной в начале и конце : Нет
При вычислениях CRC использовались нулевые сэмплы : Да
Интерфейс : Встроенный Win32-интерфейс для Win NT/2000
Обработка зазоров : Добавлено к предыдущему треку

Выходной формат : Пользовательский кодировщик
Выбранный битрейт : 1024 kBit/s
Качество : Высокий
Добавление ID3-тэга : Да
Утилита сжатия : C:\Program Files\Exact Audio Copy\FLAC\FLAC.EXE
Дополнительные параметры : -8 -V -T "ARTIST=%a" -T "TITLE=%t" -T "ALBUM=%g" -T "DATE=%y" -T "TRACKNUMBER=%n" -T "GENRE=%m" -T "COMMENT=%e" %s -o %d

TOC извлечённого CD

Трек | Старт | Длительность | Начальный сектор | Конечный сектор
---------------------------------------------------------------------
1 | 0:00.00 | 5:33.74 | 0 | 25048
2 | 5:33.74 | 3:02.03 | 25049 | 38701
3 | 8:36.02 | 4:33.24 | 38702 | 59200
4 | 13:09.26 | 3:45.69 | 59201 | 76144
5 | 16:55.20 | 4:06.07 | 76145 | 94601
6 | 21:01.27 | 5:09.00 | 94602 | 117776
7 | 26:10.27 | 4:45.17 | 117777 | 139168
8 | 30:55.44 | 3:42.04 | 139169 | 155822
9 | 34:37.48 | 6:48.01 | 155823 | 186423
10 | 41:25.49 | 5:38.60 | 186424 | 211833
11 | 47:04.34 | 6:58.37 | 211834 | 243220
12 | 54:02.71 | 5:51.12 | 243221 | 269557
13 | 59:54.08 | 5:21.37 | 269558 | 293669
14 | 65:15.45 | 4:32.51 | 293670 | 314120
15 | 69:48.21 | 4:53.24 | 314121 | 336119

Трек 1

Имя файла C:\ДиДюЛя - Дорога в Багдад\01 ДиДюЛя - Arabica.wav

Длина предзазора 0:00:02.00

Пиковый уровень 97.9 %
Качество трека 100.0 %
CRC теста 8AF38E73
CRC копии 8AF38E73
Копирование... OK

Трек 2

Имя файла C:\ДиДюЛя - Дорога в Багдад\02 ДиДюЛя - На побережье.wav

Пиковый уровень 97.9 %
Качество трека 100.0 %
CRC теста 825569CC
CRC копии 825569CC
Копирование... OK

Трек 3

Имя файла C:\ДиДюЛя - Дорога в Багдад\03 ДиДюЛя - Лейла.wav

Пиковый уровень 97.9 %
Качество трека 100.0 %
CRC теста 50A82488
CRC копии 50A82488
Копирование... OK

Трек 4

Имя файла C:\ДиДюЛя - Дорога в Багдад\04 ДиДюЛя - Ветер.wav

Пиковый уровень 97.9 %
Качество трека 100.0 %
CRC теста E90FB03B
CRC копии E90FB03B
Копирование... OK

Трек 5

Имя файла C:\ДиДюЛя - Дорога в Багдад\05 ДиДюЛя - День Рождения.wav

Пиковый уровень 97.9 %
Качество трека 100.0 %
CRC теста D9C18947
CRC копии D9C18947
Копирование... OK

Трек 6

Имя файла C:\ДиДюЛя - Дорога в Багдад\06 ДиДюЛя - По течению.wav

Пиковый уровень 97.9 %
Качество трека 100.0 %
CRC теста 516D686E
CRC копии 516D686E
Копирование... OK

Трек 7

Имя файла C:\ДиДюЛя - Дорога в Багдад\07 ДиДюЛя - Чаппа.wav

Пиковый уровень 97.9 %
Качество трека 100.0 %
CRC теста 337F66A2
CRC копии 337F66A2
Копирование... OK

Трек 8

Имя файла C:\ДиДюЛя - Дорога в Багдад\08 ДиДюЛя - Гром.wav

Пиковый уровень 97.9 %
Качество трека 100.0 %
CRC теста 85539406
CRC копии 85539406
Копирование... OK

Трек 9

Имя файла C:\ДиДюЛя - Дорога в Багдад\09 ДиДюЛя - Fashion.wav

Пиковый уровень 97.9 %
Качество трека 100.0 %
CRC теста ED271F2E
CRC копии ED271F2E
Копирование... OK

Трек 10

Имя файла C:\ДиДюЛя - Дорога в Багдад\10 ДиДюЛя - Полет на Меркурий.wav

Пиковый уровень 97.9 %
Качество трека 100.0 %
CRC теста 2FEAADC1
CRC копии 2FEAADC1
Копирование... OK

Трек 11

Имя файла C:\ДиДюЛя - Дорога в Багдад\11 ДиДюЛя - Мираж.wav

Пиковый уровень 97.9 %
Качество трека 100.0 %
CRC теста D31545DC
CRC копии D31545DC
Копирование... OK

Трек 12

Имя файла C:\ДиДюЛя - Дорога в Багдад\12 ДиДюЛя - Вверх.wav

Пиковый уровень 97.9 %
Качество трека 100.0 %
CRC теста 43A24DDD
CRC копии 43A24DDD
Копирование... OK

Трек 13

Имя файла C:\ДиДюЛя - Дорога в Багдад\13 ДиДюЛя - Дорога в Багдад.wav

Пиковый уровень 97.9 %
Качество трека 100.0 %
CRC теста FE49375C
CRC копии FE49375C
Копирование... OK

Трек 14

Имя файла C:\ДиДюЛя - Дорога в Багдад\14 ДиДюЛя - Кофе утром.wav

Пиковый уровень 97.9 %
Качество трека 100.0 %
CRC теста 3EE22CCD
CRC копии 3EE22CCD
Копирование... OK

Трек 15

Имя файла C:\ДиДюЛя - Дорога в Багдад\15 ДиДюЛя - Мои печали и радости.wav

Пиковый уровень 95.7 %
Качество трека 100.0 %
CRC теста 9910ADCC
CRC копии 9910ADCC
Копирование... OK

Ошибок не произошло

Конец отчёта
Трек лист:
1. Мечта (3:23)
2. Сердце обжигая (5:44)
3. Дорогой дерзких (3:28)
4. Голос сфер (4:46)
5. Парящий в облаках (7:10)
6. Кометы хвост (4:35)
7. Великий храм (6:03)
8. Легенда (3:18)
9. Уличные cтрасти (3:45)
10. Осень-Август (4:08)
11. Путь домой (4:37)
Продолжительность: (00:50:57)
AUDIOCHECKER v2.0 beta (build 457) - by Dester - opdester@freemail.hu
~~~~~~~~~~~~~~~~~~~~~~~~~~~~~~~~~~
-=== DO NOT EDIT THIS FILE! ===-

Path: ...\2004 - Легенда

001 -=- 01 - Мечта.flac -=- CDDA (100%)
002 -=- 02 - Сердце обжигая.flac -=- CDDA (100%)
003 -=- 03 - Дорогой дерзких.flac -=- CDDA (100%)
004 -=- 04 - Голос сфер.flac -=- CDDA (100%)
005 -=- 05 - Парящий в облаках.flac -=- CDDA (100%)
006 -=- 06 - Кометы хвост.flac -=- CDDA (100%)
007 -=- 07 - Великий храм.flac -=- CDDA (99%)
008 -=- 08 - Легенда.flac -=- CDDA (100%)
009 -=- 09 - Уличные cтрасти.flac -=- CDDA (100%)
010 -=- 10 - Осень-Август.flac -=- CDDA (99%)
011 -=- 11 - Путь домой.flac -=- CDDA (100%)

Summary 99.82% CDDA

57387092
Exact Audio Copy V0.99 prebeta 5 from 4. May 2009

Отчёт EAC об извлечении, выполненном 6. марта 2010, 14:46

ДиДюЛя / Легенда

Дисковод: HL-DT-STDVD-RAM GH22NS30 Adapter: 3 ID: 0

Режим чтения : Достоверность
Использование точного потока : Да
Отключение кэша аудио : Да
Использование указателей C2 : Нет

Комбинированное смещение чтения/записи : 102
Способность читать области Lead-in и Lead-out : Нет
Заполнение пропущенных сэмплов тишиной : Да
Удаление блоков с тишиной в начале и конце : Нет
При вычислениях CRC использовались нулевые сэмплы : Да
Интерфейс : Встроенный Win32-интерфейс для Win NT/2000
Обработка зазоров : Добавлено к предыдущему треку

Выходной формат : Пользовательский кодировщик
Выбранный битрейт : 1024 kBit/s
Качество : Высокий
Добавление ID3-тэга : Да
Утилита сжатия : C:\Program Files\Exact Audio Copy\FLAC\FLAC.EXE
Дополнительные параметры : -8 -V -T "ARTIST=%a" -T "TITLE=%t" -T "ALBUM=%g" -T "DATE=%y" -T "TRACKNUMBER=%n" -T "GENRE=%m" -T "COMMENT=%e" %s -o %d

TOC извлечённого CD

Трек | Старт | Длительность | Начальный сектор | Конечный сектор
---------------------------------------------------------------------
1 | 0:00.00 | 3:20.48 | 0 | 15047
2 | 3:20.48 | 5:41.05 | 15048 | 40627
3 | 9:01.53 | 3:25.74 | 40628 | 56076
4 | 12:27.52 | 4:43.23 | 56077 | 77324
5 | 17:11.00 | 7:07.56 | 77325 | 109405
6 | 24:18.56 | 4:32.39 | 109406 | 129844
7 | 28:51.20 | 5:59.22 | 129845 | 156791
8 | 34:50.42 | 3:16.44 | 156792 | 171535
9 | 38:07.11 | 3:42.71 | 171536 | 188256
10 | 41:50.07 | 4:05.03 | 188257 | 206634
11 | 45:55.10 | 4:37.35 | 206635 | 227444

Трек 1

Имя файла C:\ДиДюЛя - Легенда\01 ДиДюЛя - Мечта.wav

Длина предзазора 0:00:02.00

Пиковый уровень 100.0 %
Качество трека 100.0 %
CRC теста 4530E744
CRC копии 4530E744
Копирование... OK

Трек 2

Имя файла C:\ДиДюЛя - Легенда\02 ДиДюЛя - Сердце обжигая.wav

Пиковый уровень 100.0 %
Качество трека 99.9 %
CRC теста E775E92B
CRC копии E775E92B
Копирование... OK

Трек 3

Имя файла C:\ДиДюЛя - Легенда\03 ДиДюЛя - Дорогой дерзких.wav

Пиковый уровень 100.0 %
Качество трека 100.0 %
CRC теста 92E4A54F
CRC копии 92E4A54F
Копирование... OK

Трек 4

Имя файла C:\ДиДюЛя - Легенда\04 ДиДюЛя - Голос сфер.wav

Пиковый уровень 100.0 %
Качество трека 100.0 %
CRC теста ED8D2450
CRC копии ED8D2450
Копирование... OK

Трек 5

Имя файла C:\ДиДюЛя - Легенда\05 ДиДюЛя - Парящий в облаках.wav

Пиковый уровень 100.0 %
Качество трека 100.0 %
CRC теста 8DD677BD
CRC копии 8DD677BD
Копирование... OK

Трек 6

Имя файла C:\ДиДюЛя - Легенда\06 ДиДюЛя - Кометы хвост.wav

Пиковый уровень 100.0 %
Качество трека 100.0 %
CRC теста 84054979
CRC копии 84054979
Копирование... OK

Трек 7

Имя файла C:\ДиДюЛя - Легенда\07 ДиДюЛя - Великий Храм.wav

Пиковый уровень 100.0 %
Качество трека 99.9 %
CRC теста 0224F074
CRC копии 0224F074
Копирование... OK

Трек 8

Имя файла C:\ДиДюЛя - Легенда\08 ДиДюЛя - Легенда.wav

Пиковый уровень 100.0 %
Качество трека 99.9 %
CRC теста B5542566
CRC копии B5542566
Копирование... OK

Трек 9

Имя файла C:\ДиДюЛя - Легенда\09 ДиДюЛя - Уличные страсти.wav

Пиковый уровень 100.0 %
Качество трека 100.0 %
CRC теста BDE7EEFA
CRC копии BDE7EEFA
Копирование... OK

Трек 10

Имя файла C:\ДиДюЛя - Легенда\10 ДиДюЛя - Осень-август.wav

Пиковый уровень 100.0 %
Качество трека 99.9 %
CRC теста A3E6FEEE
CRC копии A3E6FEEE
Копирование... OK

Трек 11

Имя файла C:\ДиДюЛя - Легенда\11 ДиДюЛя - Путь домой.wav

Пиковый уровень 100.0 %
Качество трека 100.0 %
CRC теста 5A8214CC
CRC копии 5A8214CC
Копирование... OK

Ошибок не произошло

Конец отчёта
Трек лист:
1. Тайна - 5:41
2. Пещерный город Инкерман - 3:24
3. Таял звук - 4:17
4. Винил - 6:01
5. Легкий бриз - 3:48
6. Красиво, хорошо - 5:08
7. Осенний лист - 4:07
8. В изгнании - 4:00
9. Океан - 5:31
10. Поезд в Барселону - 5:56
11. Комета - 4:40
Продолжительность: (00:50:26)
AUDIOCHECKER v2.0 beta (build 457) - by Dester - opdester@freemail.hu
~~~~~~~~~~~~~~~~~~~~~~~~~~~~~~~~~~
-=== DO NOT EDIT THIS FILE! ===-

Path: ...\2006 - Пещерный город Инкерман

001 -=- 01 - Тайна.flac -=- CDDA (99%)
002 -=- 02 - Пещерный город Инкерман.flac -=- CDDA (100%)
003 -=- 03 - Таял звук.flac -=- CDDA (100%)
004 -=- 04 - Винил.flac -=- CDDA (100%)
005 -=- 05 - Легкий бриз.flac -=- CDDA (100%)
006 -=- 06 - Красиво, хорошо.flac -=- CDDA (100%)
007 -=- 07 - Осенний лист.flac -=- CDDA (99%)
008 -=- 08 - В изгнании.flac -=- CDDA (100%)
009 -=- 09 - Океан.flac -=- CDDA (100%)
010 -=- 10 - Поезд в Барселону.flac -=- CDDA (100%)
011 -=- 11 - Комета.flac -=- CDDA (100%)

Summary 99.82% CDDA

6521412
Exact Audio Copy V0.99 prebeta 5 from 4. May 2009

Отчёт EAC об извлечении, выполненном 7. марта 2010, 0:04

ДиДюЛя / Пещерный город Инкерман

Дисковод: PIONEER DVD-RW DVR-111L Adapter: 0 ID: 1

Режим чтения : Достоверность
Использование точного потока : Да
Отключение кэша аудио : Да
Использование указателей C2 : Нет

Комбинированное смещение чтения/записи : 48
Способность читать области Lead-in и Lead-out : Нет
Заполнение пропущенных сэмплов тишиной : Да
Удаление блоков с тишиной в начале и конце : Нет
При вычислениях CRC использовались нулевые сэмплы : Да
Интерфейс : Встроенный Win32-интерфейс для Win NT/2000
Обработка зазоров : Добавлено к предыдущему треку

Выходной формат : Пользовательский кодировщик
Выбранный битрейт : 1024 kBit/s
Качество : Высокий
Добавление ID3-тэга : Да
Утилита сжатия : C:\Program Files\Exact Audio Copy\FLAC\FLAC.EXE
Дополнительные параметры : -8 -V -T "ARTIST=%a" -T "TITLE=%t" -T "ALBUM=%g" -T "DATE=%y" -T "TRACKNUMBER=%n" -T "GENRE=%m" -T "COMMENT=%e" %s -o %d

TOC извлечённого CD

Трек | Старт | Длительность | Начальный сектор | Конечный сектор
---------------------------------------------------------------------
1 | 0:00.00 | 5:35.63 | 0 | 25187
2 | 5:35.63 | 3:21.19 | 25188 | 40281
3 | 8:57.07 | 4:14.14 | 40282 | 59345
4 | 13:11.21 | 5:58.47 | 59346 | 86242
5 | 19:09.68 | 3:44.33 | 86243 | 103075
6 | 22:54.26 | 5:02.40 | 103076 | 125765
7 | 27:56.66 | 4:02.35 | 125766 | 143950
8 | 31:59.26 | 3:54.61 | 143951 | 161561
9 | 35:54.12 | 5:28.69 | 161562 | 186230
10 | 41:23.06 | 3:53.67 | 186231 | 203772
11 | 45:16.73 | 4:37.36 | 203773 | 224583

Трек 1

Имя файла C:\ДиДюЛя - Пещерный город Инкерман\01 ДиДюЛя - Тайна.wav

Длина предзазора 0:00:02.00

Пиковый уровень 99.9 %
Качество трека 100.0 %
CRC теста EF196A14
CRC копии EF196A14
Копирование... OK

Трек 2

Имя файла C:\ДиДюЛя - Пещерный город Инкерман\02 ДиДюЛя - Пещерный город Инкерман.wav

Пиковый уровень 99.9 %
Качество трека 99.9 %
CRC теста DA7E1260
CRC копии DA7E1260
Копирование... OK

Трек 3

Имя файла C:\ДиДюЛя - Пещерный город Инкерман\03 ДиДюЛя - Таял звук.wav

Пиковый уровень 99.9 %
Качество трека 100.0 %
CRC теста E22C8C49
CRC копии E22C8C49
Копирование... OK

Трек 4

Имя файла C:\ДиДюЛя - Пещерный город Инкерман\04 ДиДюЛя - Винил.wav

Пиковый уровень 99.9 %
Качество трека 99.9 %
CRC теста 68EEBDD0
CRC копии 68EEBDD0
Копирование... OK

Трек 5

Имя файла C:\ДиДюЛя - Пещерный город Инкерман\05 ДиДюЛя - Лёгкий бриз.wav

Пиковый уровень 99.9 %
Качество трека 100.0 %
CRC теста D298CC79
CRC копии D298CC79
Копирование... OK

Трек 6

Имя файла C:\ДиДюЛя - Пещерный город Инкерман\06 ДиДюЛя - Красиво, хорошо.wav

Пиковый уровень 99.9 %
Качество трека 99.9 %
CRC теста F6522746
CRC копии F6522746
Копирование... OK

Трек 7

Имя файла C:\ДиДюЛя - Пещерный город Инкерман\07 ДиДюЛя - Осенний лист.wav

Пиковый уровень 99.9 %
Качество трека 100.0 %
CRC теста 91113320
CRC копии 91113320
Копирование... OK

Трек 8

Имя файла C:\ДиДюЛя - Пещерный город Инкерман\08 ДиДюЛя - В изгнании.wav

Пиковый уровень 99.9 %
Качество трека 100.0 %
CRC теста 6D820349
CRC копии 6D820349
Копирование... OK

Трек 9

Имя файла C:\ДиДюЛя - Пещерный город Инкерман\09 ДиДюЛя - Океан.wav

Пиковый уровень 99.9 %
Качество трека 100.0 %
CRC теста 6A630ED3
CRC копии 6A630ED3
Копирование... OK

Трек 10

Имя файла C:\ДиДюЛя - Пещерный город Инкерман\10 ДиДюЛя - Поезд в Барселону.wav

Пиковый уровень 99.9 %
Качество трека 100.0 %
CRC теста B87A5F36
CRC копии B87A5F36
Копирование... OK

Трек 11

Имя файла C:\ДиДюЛя - Пещерный город Инкерман\11 ДиДюЛя - Комета.wav

Пиковый уровень 99.9 %
Качество трека 100.0 %
CRC теста 8993381D
CRC копии 8993381D
Копирование... OK

Ошибок не произошло

Конец отчёта
Трек лист:
1. Цветные сны
2. Посылка из Румынии
3. Таэллия
4. Далёкий город
5. Танец круга
6. Вираж
7. На пороге
8. Дым или вода
9. Шумный праздник
10. Семь поцелуев
Продолжительность: (00:43:51)
AUDIOCHECKER v2.0 beta (build 457) - by Dester - opdester@freemail.hu
~~~~~~~~~~~~~~~~~~~~~~~~~~~~~~~~~~
-=== DO NOT EDIT THIS FILE! ===-

Path: ...\2006 - Цветные Сны

001 -=- 01 - Цветные сны.flac -=- CDDA (99%)
002 -=- 02 - Посылка из Румынии.flac -=- CDDA (100%)
003 -=- 03 - Таэлия.flac -=- CDDA (100%)
004 -=- 04 - Далекий город.flac -=- CDDA (100%)
005 -=- 05 - Танец круга.flac -=- CDDA (100%)
006 -=- 06 - Вираж.flac -=- MPEG (95%)
007 -=- 07 - На пороге.flac -=- CDDA (100%)
008 -=- 08 - Дым или вода.flac -=- CDDA (100%)
009 -=- 09 - Шумный праздник.flac -=- CDDA (100%)
010 -=- 10 - Семь поцелуев.flac -=- CDDA (100%)

Summary 90.40% CDDA

30168852
Exact Audio Copy V0.99 prebeta 5 from 4. May 2009

Отчёт EAC об извлечении, выполненном 7. марта 2010, 16:31

ДиДюЛя / Цветные сны

Дисковод: PIONEER DVD-RW DVR-111L Adapter: 0 ID: 1

Режим чтения : Достоверность
Использование точного потока : Да
Отключение кэша аудио : Да
Использование указателей C2 : Нет

Комбинированное смещение чтения/записи : 48
Способность читать области Lead-in и Lead-out : Нет
Заполнение пропущенных сэмплов тишиной : Да
Удаление блоков с тишиной в начале и конце : Нет
При вычислениях CRC использовались нулевые сэмплы : Да
Интерфейс : Встроенный Win32-интерфейс для Win NT/2000
Обработка зазоров : Добавлено к предыдущему треку

Выходной формат : Пользовательский кодировщик
Выбранный битрейт : 1024 kBit/s
Качество : Высокий
Добавление ID3-тэга : Да
Утилита сжатия : C:\Program Files\Exact Audio Copy\FLAC\FLAC.EXE
Дополнительные параметры : -8 -V -T "ARTIST=%a" -T "TITLE=%t" -T "ALBUM=%g" -T "DATE=%y" -T "TRACKNUMBER=%n" -T "GENRE=%m" -T "COMMENT=%e" %s -o %d

TOC извлечённого CD

Трек | Старт | Длительность | Начальный сектор | Конечный сектор
---------------------------------------------------------------------
1 | 0:00.00 | 3:35.37 | 0 | 16161
2 | 3:35.37 | 4:22.59 | 16162 | 35870
3 | 7:58.21 | 3:13.36 | 35871 | 50381
4 | 11:11.57 | 4:37.74 | 50382 | 71230
5 | 15:49.56 | 4:37.36 | 71231 | 92041
6 | 20:27.17 | 5:05.05 | 92042 | 114921
7 | 25:32.22 | 4:41.03 | 114922 | 135999
8 | 30:13.25 | 3:17.35 | 136000 | 150809
9 | 33:30.60 | 6:14.45 | 150810 | 178904
10 | 39:45.30 | 3:54.33 | 178905 | 196487

Трек 1

Имя файла C:\ДиДюЛя - Цветные сны\01 ДиДюЛя - Цветные сны.wav

Длина предзазора 0:00:02.00

Пиковый уровень 99.9 %
Качество трека 100.0 %
CRC теста 53CABA53
CRC копии 53CABA53
Копирование... OK

Трек 2

Имя файла C:\ДиДюЛя - Цветные сны\02 ДиДюЛя - Посылка из Румынии.wav

Пиковый уровень 99.8 %
Качество трека 100.0 %
CRC теста 7F4029D4
CRC копии 7F4029D4
Копирование... OK

Трек 3

Имя файла C:\ДиДюЛя - Цветные сны\03 ДиДюЛя - Таэллия.wav

Пиковый уровень 99.9 %
Качество трека 100.0 %
CRC теста F51402E4
CRC копии F51402E4
Копирование... OK

Трек 4

Имя файла C:\ДиДюЛя - Цветные сны\04 ДиДюЛя - Далёкий город.wav

Пиковый уровень 99.9 %
Качество трека 100.0 %
CRC теста 2F4B5962
CRC копии 2F4B5962
Копирование... OK

Трек 5

Имя файла C:\ДиДюЛя - Цветные сны\05 ДиДюЛя - Танец круга.wav

Пиковый уровень 99.9 %
Качество трека 100.0 %
CRC теста 1687CA2F
CRC копии 1687CA2F
Копирование... OK

Трек 6

Имя файла C:\ДиДюЛя - Цветные сны\06 ДиДюЛя - Вираж.wav

Пиковый уровень 99.9 %
Качество трека 100.0 %
CRC теста 17D38421
CRC копии 17D38421
Копирование... OK

Трек 7

Имя файла C:\ДиДюЛя - Цветные сны\07 ДиДюЛя - На пороге.wav

Пиковый уровень 99.9 %
Качество трека 100.0 %
CRC теста DA07FD97
CRC копии DA07FD97
Копирование... OK

Трек 8

Имя файла C:\ДиДюЛя - Цветные сны\08 ДиДюЛя - Дым или вода.wav

Пиковый уровень 99.9 %
Качество трека 100.0 %
CRC теста 86F25527
CRC копии 86F25527
Копирование... OK

Трек 9

Имя файла C:\ДиДюЛя - Цветные сны\09 ДиДюЛя - Шумный праздник.wav

Пиковый уровень 99.9 %
Качество трека 99.9 %
CRC теста E75CEC01
CRC копии E75CEC01
Копирование... OK

Трек 10

Имя файла C:\ДиДюЛя - Цветные сны\10 ДиДюЛя - Семь поцелуев.wav

Пиковый уровень 99.9 %
Качество трека 99.9 %
CRC теста DA3671D7
CRC копии DA3671D7
Копирование... OK

Ошибок не произошло

Конец отчёта
Трек лист:
1. Alegria (Alegria)
2. Огонь, вода и медные трубы (Hell and highwater)
3. Время людей (Human time)
4. Полёт на воздушном шаре (Balloon flight)
5. Путь воина (Warrior way)
6. Место отмечено крестом (The crossed place)
7. Мой город тайн (My enigmatic city)
8. Священная красота (Sacred beauty)
9. Сказки старого леса (The tales of an old forest)
10. Вечный странник (Eternal piligrim)
11. Январь. На небе звезда (January. Star in the sky)
12. На Рождество (Christmas)
13. Золотое свечение (Golden luminescence)
Продолжительность: (00:59:52)
AUDIOCHECKER v2.0 beta (build 457) - by Dester - opdester@freemail.hu
~~~~~~~~~~~~~~~~~~~~~~~~~~~~~~~~~~
-=== DO NOT EDIT THIS FILE! ===-

Path: ...\2007 - Музыка Не Снятого Кино

001 -=- 01 - Alegria.flac -=- CDDA (100%)
002 -=- 02 - Огонь, вода и медные трубы.flac -=- CDDA (100%)
003 -=- 03 - Время людей.flac -=- CDDA (100%)
004 -=- 03 - Золотое свечение.flac -=- CDDA (100%)
005 -=- 04 - Полет на воздушном шаре.flac -=- CDDA (100%)
006 -=- 05 - Путь воина.flac -=- CDDA (100%)
007 -=- 06 - Место отмечено крестом.flac -=- CDDA (100%)
008 -=- 07 - Мой город тайн.flac -=- CDDA (100%)
009 -=- 08 - Священная красота.flac -=- CDDA (100%)
010 -=- 09 - Сказки старого леса.flac -=- CDDA (100%)
011 -=- 10 - Вечный странник.flac -=- CDDA (99%)
012 -=- 11 - Январь. На небе звезда.flac -=- CDDA (100%)
013 -=- 12 - На рождество.flac -=- CDDA (100%)

Summary 99.92% CDDA

154624932
Exact Audio Copy V0.99 prebeta 5 from 4. May 2009

Отчёт EAC об извлечении, выполненном 7. марта 2010, 3:38

ДиДюЛя / Музыка неснятого кино

Дисковод: PIONEER DVD-RW DVR-111L Adapter: 1 ID: 1

Режим чтения : Достоверность
Использование точного потока : Да
Отключение кэша аудио : Да
Использование указателей C2 : Нет

Комбинированное смещение чтения/записи : 48
Способность читать области Lead-in и Lead-out : Нет
Заполнение пропущенных сэмплов тишиной : Да
Удаление блоков с тишиной в начале и конце : Нет
При вычислениях CRC использовались нулевые сэмплы : Да
Интерфейс : Встроенный Win32-интерфейс для Win NT/2000
Обработка зазоров : Добавлено к предыдущему треку

Выходной формат : Пользовательский кодировщик
Выбранный битрейт : 1024 kBit/s
Качество : Высокий
Добавление ID3-тэга : Да
Утилита сжатия : C:\Program Files\Exact Audio Copy\FLAC\FLAC.EXE
Дополнительные параметры : -8 -V -T "ARTIST=%a" -T "TITLE=%t" -T "ALBUM=%g" -T "DATE=%y" -T "TRACKNUMBER=%n" -T "GENRE=%m" -T "COMMENT=%e" %s -o %d

TOC извлечённого CD

Трек | Старт | Длительность | Начальный сектор | Конечный сектор
---------------------------------------------------------------------
1 | 0:00.00 | 3:11.63 | 0 | 14387
2 | 3:11.63 | 4:14.44 | 14388 | 33481
3 | 7:26.32 | 4:37.60 | 33482 | 54316
4 | 12:04.17 | 4:38.65 | 54317 | 75231
5 | 16:43.07 | 5:38.54 | 75232 | 100635
6 | 22:21.61 | 3:31.48 | 100636 | 116508
7 | 25:53.34 | 4:18.47 | 116509 | 135905
8 | 30:12.06 | 6:10.30 | 135906 | 163685
9 | 36:22.36 | 6:04.09 | 163686 | 190994
10 | 42:26.45 | 4:58.74 | 190995 | 213418
11 | 47:25.44 | 3:15.31 | 213419 | 228074
12 | 50:41.00 | 3:10.55 | 228075 | 242379
13 | 53:51.55 | 5:26.32 | 242380 | 266861

Трек 1

Имя файла C:\ДиДюЛя - Музыка неснятого кино\01 ДиДюЛя - Alegria.wav

Длина предзазора 0:00:02.00

Пиковый уровень 97.9 %
Качество трека 100.0 %
CRC теста 22EAAE42
CRC копии 22EAAE42
Копирование... OK

Трек 2

Имя файла C:\ДиДюЛя - Музыка неснятого кино\02 ДиДюЛя - Огонь, вода и медные трубы.wav

Пиковый уровень 97.9 %
Качество трека 100.0 %
CRC теста 39DB3F84
CRC копии 39DB3F84
Копирование... OK

Трек 3

Имя файла C:\ДиДюЛя - Музыка неснятого кино\03 ДиДюЛя - Время людей.wav

Пиковый уровень 97.9 %
Качество трека 100.0 %
CRC теста E6FC526B
CRC копии E6FC526B
Копирование... OK

Трек 4

Имя файла C:\ДиДюЛя - Музыка неснятого кино\04 ДиДюЛя - Полет на воздушном шаре.wav

Пиковый уровень 89.1 %
Качество трека 100.0 %
CRC теста D5C4D205
CRC копии D5C4D205
Копирование... OK

Трек 5

Имя файла C:\ДиДюЛя - Музыка неснятого кино\05 ДиДюЛя - Путь воина.wav

Пиковый уровень 97.9 %
Качество трека 99.9 %
CRC теста 62BAD206
CRC копии 62BAD206
Копирование... OK

Трек 6

Имя файла C:\ДиДюЛя - Музыка неснятого кино\06 ДиДюЛя - Место отмечено крестом.wav

Пиковый уровень 97.9 %
Качество трека 100.0 %
CRC теста C1DC081A
CRC копии C1DC081A
Копирование... OK

Трек 7

Имя файла C:\ДиДюЛя - Музыка неснятого кино\07 ДиДюЛя - Мой город тайн.wav

Пиковый уровень 97.9 %
Качество трека 100.0 %
CRC теста A17279B7
CRC копии A17279B7
Копирование... OK

Трек 8

Имя файла C:\ДиДюЛя - Музыка неснятого кино\08 ДиДюЛя - Священная красота.wav

Пиковый уровень 97.9 %
Качество трека 100.0 %
CRC теста C437A3E4
CRC копии C437A3E4
Копирование... OK

Трек 9

Имя файла C:\ДиДюЛя - Музыка неснятого кино\09 ДиДюЛя - Сказки старого леса.wav

Пиковый уровень 97.9 %
Качество трека 100.0 %
CRC теста 8A344239
CRC копии 8A344239
Копирование... OK

Трек 10

Имя файла C:\ДиДюЛя - Музыка неснятого кино\10 ДиДюЛя - Вечный странник.wav

Пиковый уровень 97.9 %
Качество трека 100.0 %
CRC теста 0BDF39FA
CRC копии 0BDF39FA
Копирование... OK

Трек 11

Имя файла C:\ДиДюЛя - Музыка неснятого кино\11 ДиДюЛя - Январь. На небе звезда.wav

Пиковый уровень 97.9 %
Качество трека 100.0 %
CRC теста EBBBE2A1
CRC копии EBBBE2A1
Копирование... OK

Трек 12

Имя файла C:\ДиДюЛя - Музыка неснятого кино\12 ДиДюЛя - На Рождество.wav

Пиковый уровень 97.9 %
Качество трека 100.0 %
CRC теста 54015602
CRC копии 54015602
Копирование... OK

Трек 13

Имя файла C:\ДиДюЛя - Музыка неснятого кино\13 ДиДюЛя - Золотое свечение.wav

Пиковый уровень 97.9 %
Качество трека 99.9 %
CRC теста 5985D295
CRC копии 5985D295
Копирование... OK

Ошибок не произошло

Конец отчёта
Трек лист:
1. Один день в сентябре (4:00)
2. Торо-ко-ко , пэк-пэк (2:57)
3. Воздушный змей (3:35)
4. Прогулка (3:38)
5. Мерцает звук (2:39)
6. После дождя (6:09)
7. Затерянный грот (3:23)
8. Кольца времени (4:46)
9. На рассвете (3:48)
10. Прощай поверхность ! (3:52)
11. Аромат (3:34)
Продолжительность: (00:42:21)
AUDIOCHECKER v2.0 beta (build 457) - by Dester - opdester@freemail.hu
~~~~~~~~~~~~~~~~~~~~~~~~~~~~~~~~~~
-=== DO NOT EDIT THIS FILE! ===-

Path: ...\2010 - Аромат

001 -=- 01 - Один день в сентябре.flac -=- CDDA (100%)
002 -=- 02 - Торо-ко-ко , пэк-пэк.flac -=- CDDA (100%)
003 -=- 03 - Воздушный змей.flac -=- CDDA (100%)
004 -=- 04 - Прогулка.flac -=- CDDA (99%)
005 -=- 05 - Мерцает звук.flac -=- CDDA (100%)
006 -=- 06 - После дождя.flac -=- CDDA (99%)
007 -=- 07 - Затерянный грот.flac -=- CDDA (100%)
008 -=- 08 - Кольца времени.flac -=- CDDA (100%)
009 -=- 09 - На рассвете.flac -=- CDDA (99%)
010 -=- 10 - Прощай поверхность !.flac -=- CDDA (100%)
011 -=- 11 - Аромат.flac -=- CDDA (100%)

Summary 99.73% CDDA

110491652
Exact Audio Copy V0.99 prebeta 5 from 4. May 2009

Отчёт EAC об извлечении, выполненном 6. марта 2010, 21:04

ДиДюЛя / Аромат

Дисковод: Optiarc DVD RW AD-5170A Adapter: 0 ID: 1

Режим чтения : Достоверность
Использование точного потока : Да
Отключение кэша аудио : Да
Использование указателей C2 : Нет

Комбинированное смещение чтения/записи : 48
Способность читать области Lead-in и Lead-out : Нет
Заполнение пропущенных сэмплов тишиной : Да
Удаление блоков с тишиной в начале и конце : Нет
При вычислениях CRC использовались нулевые сэмплы : Да
Интерфейс : Встроенный Win32-интерфейс для Win NT/2000
Обработка зазоров : Добавлено к предыдущему треку

Выходной формат : Пользовательский кодировщик
Выбранный битрейт : 1024 kBit/s
Качество : Высокий
Добавление ID3-тэга : Да
Утилита сжатия : C:\Program Files\Exact Audio Copy\FLAC\FLAC.EXE
Дополнительные параметры : -8 -V -T "ARTIST=%a" -T "TITLE=%t" -T "ALBUM=%g" -T "DATE=%y" -T "TRACKNUMBER=%n" -T "GENRE=%m" -T "COMMENT=%e" %s -o %d

TOC извлечённого CD

Трек | Старт | Длительность | Начальный сектор | Конечный сектор
---------------------------------------------------------------------
1 | 0:00.00 | 3:59.28 | 0 | 17952
2 | 3:59.28 | 2:56.69 | 17953 | 31221
3 | 6:56.22 | 3:35.33 | 31222 | 47379
4 | 10:31.55 | 3:37.26 | 47380 | 63680
5 | 14:09.06 | 2:37.42 | 63681 | 75497
6 | 16:46.48 | 6:08.67 | 75498 | 103164
7 | 22:55.40 | 3:21.42 | 103165 | 118281
8 | 26:17.07 | 4:43.74 | 118282 | 139580
9 | 31:01.06 | 3:45.63 | 139581 | 156518
10 | 34:46.69 | 3:51.62 | 156519 | 173905
11 | 38:38.56 | 3:31.45 | 173906 | 189775

Трек 1

Имя файла C:\ДиДюЛя - Аромат\01 ДиДюЛя - Один день в сентябре.wav

Длина предзазора 0:00:02.00

Пиковый уровень 89.1 %
Качество трека 100.0 %
CRC теста 678A08EC
CRC копии 678A08EC
Копирование... OK

Трек 2

Имя файла C:\ДиДюЛя - Аромат\02 ДиДюЛя - Торо-ко-ко, пэк-пэк.wav

Пиковый уровень 100.0 %
Качество трека 100.0 %
CRC теста 459F3CAC
CRC копии 459F3CAC
Копирование... OK

Трек 3

Имя файла C:\ДиДюЛя - Аромат\03 ДиДюЛя - Воздушный змей.wav

Пиковый уровень 100.0 %
Качество трека 100.0 %
CRC теста 0D54AB7B
CRC копии 0D54AB7B
Копирование... OK

Трек 4

Имя файла C:\ДиДюЛя - Аромат\04 ДиДюЛя - Прогулка.wav

Пиковый уровень 100.0 %
Качество трека 100.0 %
CRC теста 2D231787
CRC копии 2D231787
Копирование... OK

Трек 5

Имя файла C:\ДиДюЛя - Аромат\05 ДиДюЛя - Мерцает звук.wav

Пиковый уровень 79.4 %
Качество трека 100.0 %
CRC теста 1AF48303
CRC копии 1AF48303
Копирование... OK

Трек 6

Имя файла C:\ДиДюЛя - Аромат\06 ДиДюЛя - После дождя.wav

Пиковый уровень 89.1 %
Качество трека 100.0 %
CRC теста 2470DE8F
CRC копии 2470DE8F
Копирование... OK

Трек 7

Имя файла C:\ДиДюЛя - Аромат\07 ДиДюЛя - Затерянный грот.wav

Пиковый уровень 100.0 %
Качество трека 99.9 %
CRC теста DBCC151B
CRC копии DBCC151B
Копирование... OK

Трек 8

Имя файла C:\ДиДюЛя - Аромат\08 ДиДюЛя - Кольца времени.wav

Пиковый уровень 100.0 %
Качество трека 100.0 %
CRC теста F4E3F17A
CRC копии F4E3F17A
Копирование... OK

Трек 9

Имя файла C:\ДиДюЛя - Аромат\09 ДиДюЛя - На рассвете.wav

Пиковый уровень 100.0 %
Качество трека 100.0 %
CRC теста E0F77A7B
CRC копии E0F77A7B
Копирование... OK

Трек 10

Имя файла C:\ДиДюЛя - Аромат\10 ДиДюЛя - Прощай поверхность!.wav

Пиковый уровень 100.0 %
Качество трека 100.0 %
CRC теста 250FB288
CRC копии 250FB288
Копирование... OK

Трек 11

Имя файла C:\ДиДюЛя - Аромат\11 ДиДюЛя - Аромат.wav

Пиковый уровень 89.1 %
Качество трека 100.0 %
CRC теста 60B64857
CRC копии 60B64857
Копирование... OK

Ошибок не произошло

Конец отчёта
Сборники:
Трек лист:
1. Фламенко (2:46)
2. Айседора (4:07)
3. Водопад (4:19)
4. Дорога в Багдад (5:21)
5. Румба (5:45)
6. Море (2:46)
7. Полёт на Меркурий (5:39)
8. Лейла (4:34)
9. По течению (5:09)
10. День (6:52)
11. Сатиновые берега (4:25)
12. Посвящение (2:23)
Продолжительность: (00:54:06)
AUDIOCHECKER v2.0 beta (build 457) - by Dester - opdester@freemail.hu
~~~~~~~~~~~~~~~~~~~~~~~~~~~~~~~~~~
-=== DO NOT EDIT THIS FILE! ===-

Path: ...\2003 - The Best (Сатиновые берега)

001 -=- 01 - Фламенко.flac -=- CDDA (100%)
002 -=- 02 - Айседора.flac -=- CDDA (100%)
003 -=- 03 - Водопад.flac -=- CDDA (99%)
004 -=- 04 - Дорога в Багдад.flac -=- CDDA (100%)
005 -=- 05 - Румба.flac -=- CDDA (100%)
006 -=- 07 - Море.flac -=- CDDA (99%)
007 -=- 08 - Полёт на Меркурий.flac -=- CDDA (100%)
008 -=- 09 - Лейла.flac -=- CDDA (100%)
009 -=- 10 - По течению.flac -=- CDDA (100%)
010 -=- 11 - День.flac -=- CDDA (100%)
011 -=- 12 - Сатиновые берега.flac -=- CDDA (99%)
012 -=- 13 - Посвящение.flac -=- CDDA (100%)

Summary 99.75% CDDA

152252804
Трек лист:
1. Винил
2. Поезд в Барселону
3. День
4. Сатиновые берега (ДиДюЛя, Д.Маликов)
5. Ветер
6. Легенда
7. Русская
8. Бездна
9. Испания
10. Гром
11. Ритмо
12. Пещерный город Инкерман
13. Фламенко
14. День рождения
15. Жасмин
16. Лейла (ДиДюЛя, А.Руссо)
17. Дорога в Багдад
18. Arabica
19. Посвящение
Продолжительность: (01:19:10)
AUDIOCHECKER v2.0 beta (build 457) - by Dester - opdester@freemail.hu
~~~~~~~~~~~~~~~~~~~~~~~~~~~~~~~~~~
-=== DO NOT EDIT THIS FILE! ===-

Path: ...\2006 - Grand Collection

001 -=- 01 - Винил.flac -=- CDDA (100%)
002 -=- 02 - Поезд в Барселону.flac -=- CDDA (100%)
003 -=- 03 - День.flac -=- CDDA (100%)
004 -=- 04 - Сатиновые берега (ДиДюЛя, Д.Маликов).flac -=- CDDA (100%)
005 -=- 05 - Ветер.flac -=- CDDA (100%)
006 -=- 06 - Легенда.flac -=- CDDA (100%)
007 -=- 07 - Русская.flac -=- CDDA (100%)
008 -=- 08 - Бездна.flac -=- CDDA (100%)
009 -=- 09 - Испания.flac -=- CDDA (100%)
010 -=- 10 - Гром.flac -=- CDDA (100%)
011 -=- 11 - Ритмо.flac -=- CDDA (100%)
012 -=- 12 - Пещерный город Инкерман.flac -=- CDDA (100%)
013 -=- 13 - Фламенко.flac -=- CDDA (100%)
014 -=- 14 - День рождения.flac -=- CDDA (100%)
015 -=- 15 - Жасмин.flac -=- CDDA (100%)
016 -=- 16 - Лейла (ДиДюЛя, А.Руссо).flac -=- CDDA (100%)
017 -=- 17 - Дорога в Багдад.flac -=- CDDA (100%)
018 -=- 18 - Arabica.flac -=- CDDA (100%)
019 -=- 19 - Посвящение.flac -=- CDDA (100%)

Summary 100.00% CDDA

174487300
Exact Audio Copy V0.99 prebeta 4 from 23. January 2008

Отчёт EAC об извлечении, выполненном 7. декабря 2008, 13:30

ДиДюЛя / Grand Collection

Дисковод: Optiarc DVD RW AD-7173A Adapter: 1 ID: 0

Режим чтения : Достоверность
Использование точного потока : Да
Отключение кэша аудио : Да
Использование указателей C2 : Нет

Коррекция смещения при чтении : 48
Способность читать области Lead-in и Lead-out : Нет
Заполнение пропущенных сэмплов тишиной : Да
Удаление блоков с тишиной в начале и конце : Нет
При вычислениях CRC использовались нулевые сэмплы : Да
Интерфейс : Установленный внешний ASPI-интерфейс

Выходной формат : Внутренние WAV-операции
Формат сэмплов : 44.100 Гц; 16 бит; стерео

TOC извлечённого CD

Трек | Старт | Длительность | Начальный сектор | Конечный сектор
---------------------------------------------------------------------
1 | 0:00.00 | 5:58.67 | 0 | 26916
2 | 5:58.67 | 3:54.33 | 26917 | 44499
3 | 9:53.25 | 6:52.40 | 44500 | 75439
4 | 16:45.65 | 4:24.14 | 75440 | 95253
5 | 21:10.04 | 3:45.50 | 95254 | 112178
6 | 24:55.54 | 3:18.64 | 112179 | 127092
7 | 28:14.43 | 4:34.45 | 127093 | 147687
8 | 32:49.13 | 3:30.31 | 147688 | 163468
9 | 36:19.44 | 2:52.35 | 163469 | 176403
10 | 39:12.04 | 3:42.32 | 176404 | 193085
11 | 42:54.36 | 4:44.44 | 193086 | 214429
12 | 47:39.05 | 3:21.27 | 214430 | 229531
13 | 51:00.32 | 2:45.29 | 229532 | 241935
14 | 53:45.61 | 4:09.02 | 241936 | 260612
15 | 57:54.63 | 3:30.32 | 260613 | 276394
16 | 61:25.20 | 4:33.55 | 276395 | 296924
17 | 65:59.00 | 5:21.44 | 296925 | 321043
18 | 71:20.44 | 5:35.36 | 321044 | 346204
19 | 76:56.05 | 2:23.49 | 346205 | 356978

Характеристики диапазона извлечения и сообщения об ошибках

Выбранный диапазон

Имя файла D:\ДиДюЛя - Grand Collection\ДиДюЛя - Grand Collection.wav

Пиковый уровень 98.7 %
Качество диапазона 99.9 %
CRC копии B00369F1
Копирование... OK

Ошибок не произошло

Конец отчёта
Концерты:
Трек лист:
1. Intro
2. Фламенко
3. Айседора
4. Легенда
5. Водопад
6. Русская
7. Лёгкий бриз
8. Arabicasdsd
9. Пляж
10. Румба
11. Тайна равновесия
12. Полёт на Меркурий
Продолжительность: (00:57:26)
AUDIOCHECKER v2.0 beta (build 457) - by Dester - opdester@freemail.hu
~~~~~~~~~~~~~~~~~~~~~~~~~~~~~~~~~~
-=== DO NOT EDIT THIS FILE! ===-

Path: ...\2006 - Live in Moscow CD 1

001 -=- 01 - Intro.flac -=- CDDA (100%)
002 -=- 02 - Фламенко.flac -=- CDDA (100%)
003 -=- 03 - Астеройд.flac -=- CDDA (100%)
004 -=- 04 - Легенга.flac -=- CDDA (100%)
005 -=- 05 - Водопад.flac -=- CDDA (100%)
006 -=- 06 - Русская.flac -=- CDDA (100%)
007 -=- 07 - Лёгкий бриз.flac -=- CDDA (100%)
008 -=- 08 - Arabicasdsd.flac -=- CDDA (100%)
009 -=- 09 - Пляж.flac -=- CDDA (100%)
010 -=- 10 - Румба.flac -=- CDDA (100%)
011 -=- 11 - Тайна равновесия.flac -=- CDDA (100%)
012 -=- 12 - Полет на Меркурий.flac -=- CDDA (100%)

Summary 100.00% CDDA

221810628
Трек лист:
1. Двенадцать
2. Лес
3. Уличные страсти
4. Осень-август
5. Ветер Каира
6. Яблочный пирог
7. Vynil
8. Роза
9. Путь домой
10. Кофе утром
11. Фламенко бис
Продолжительность: (01:03:58)
AUDIOCHECKER v2.0 beta (build 457) - by Dester - opdester@freemail.hu
~~~~~~~~~~~~~~~~~~~~~~~~~~~~~~~~~~
-=== DO NOT EDIT THIS FILE! ===-

Path: ...\2006 - Live in Moscow CD 2

001 -=- 01 - Двенадцать.flac -=- CDDA (100%)
002 -=- 02 - Лес.flac -=- CDDA (100%)
003 -=- 03 - Уличные страсти.flac -=- CDDA (100%)
004 -=- 04 - Осень-Август.flac -=- CDDA (100%)
005 -=- 05 - Ветер Каира.flac -=- CDDA (100%)
006 -=- 06 - Яблочный пирог.flac -=- CDDA (100%)
007 -=- 07 - Vynil.flac -=- CDDA (100%)
008 -=- 08 - Роза.flac -=- CDDA (100%)
009 -=- 09 - Путь домой.flac -=- CDDA (100%)
010 -=- 10 - Кофе утром.flac -=- CDDA (100%)
011 -=- 11 - Фламенко.flac -=- CDDA (99%)

Summary 99.91% CDDA

180696228
Трек лист:
1. Посылка из Румынии (3:46)
2. Винил (5:33)
3. Русская (4:53)
4. Легкий бриз (3:51)
5. Пляж (3:46)
6. Арабика (9:49)
7. Тайна равновесия (10:43)
8. Пещерный город Инкерман (5:29)
9. Полёт на Меркурий (7:17)
10. Рождение (6:02)
11. Двенадцать (4:05)
Продолжительность: (01:11:02)
AUDIOCHECKER v2.0 beta (build 457) - by Dester - opdester@freemail.hu
~~~~~~~~~~~~~~~~~~~~~~~~~~~~~~~~~~
-=== DO NOT EDIT THIS FILE! ===-

Path: ...\Live in Saint Petersburg CD 1

001 -=- 01 - Посылка из Румынии.flac -=- CDDA (100%)
002 -=- 02 - Винил.flac -=- CDDA (100%)
003 -=- 03 - Русская.flac -=- CDDA (100%)
004 -=- 04 - Легкий бриз.flac -=- CDDA (100%)
005 -=- 05 - Пляж.flac -=- CDDA (100%)
006 -=- 06 - Арабика.flac -=- CDDA (100%)
007 -=- 07 - Тайна равновесия.flac -=- CDDA (99%)
008 -=- 08 - Пещерный город Инкерман.flac -=- CDDA (100%)
009 -=- 09 - Полёт на Меркурий.flac -=- CDDA (100%)
010 -=- 10 - Рождение.flac -=- CDDA (100%)
011 -=- 11 - Двенадцать.flac -=- CDDA (100%)

Summary 99.91% CDDA

177305284
Exact Audio Copy V0.99 prebeta 5 from 4. May 2009

Отчёт EAC об извлечении, выполненном 3. января 2010, 4:25

Дидюля / Live in Saint Petersburg CD 1

Дисковод: Optiarc DVD RW AD-5200S Adapter: 2 ID: 1

Режим чтения : Достоверность
Использование точного потока : Да
Отключение кэша аудио : Да
Использование указателей C2 : Нет

Коррекция смещения при чтении : 48
Способность читать области Lead-in и Lead-out : Нет
Заполнение пропущенных сэмплов тишиной : Да
Удаление блоков с тишиной в начале и конце : Нет
При вычислениях CRC использовались нулевые сэмплы : Нет
Интерфейс : Установленный внешний ASPI-интерфейс

Выходной формат : Внутренние WAV-операции
Формат сэмплов : 44.100 Гц; 16 бит; стерео

TOC извлечённого CD

Трек | Старт | Длительность | Начальный сектор | Конечный сектор
---------------------------------------------------------------------
1 | 0:00.00 | 3:46.00 | 0 | 16949
2 | 3:46.00 | 5:34.00 | 16950 | 41999
3 | 9:20.00 | 4:53.60 | 42000 | 64034
4 | 14:13.60 | 3:51.72 | 64035 | 81431
5 | 18:05.57 | 3:46.33 | 81432 | 98414
6 | 21:52.15 | 9:49.31 | 98415 | 142620
7 | 31:41.46 | 10:43.29 | 142621 | 190874
8 | 42:25.00 | 5:29.38 | 190875 | 215587
9 | 47:54.38 | 7:17.62 | 215588 | 248424
10 | 55:12.25 | 6:02.51 | 248425 | 275625
11 | 61:15.01 | 4:05.38 | 275626 | 294038

Характеристики диапазона извлечения и сообщения об ошибках

Выбранный диапазон

Имя файла I:\[R_MUSIC]\RUS\Дидюля [2009] Live in Saint Petersburg\Дидюля [2009] Live in Saint Petersburg CD 1\Дидюля - Live in Saint Petersburg CD 1.wav

Пиковый уровень 97.7 %
Качество диапазона 100.0 %
CRC копии 278C6223
Копирование... OK

Ошибок не произошло

AccurateRip: сводка

Трек 1 нет в базе данных
Трек 2 нет в базе данных
Трек 3 нет в базе данных
Трек 4 нет в базе данных
Трек 5 нет в базе данных
Трек 6 нет в базе данных
Трек 7 нет в базе данных
Трек 8 нет в базе данных
Трек 9 нет в базе данных
Трек 10 нет в базе данных
Трек 11 нет в базе данных

Ни одного трека нет в базе AccurateRip

Конец отчёта
Трек лист:
1. Лес (7:02)
2. Дуновение (2:59)
3. Уличные страсти (6:19)
4. В изгнании (3:57)
5. Цветные сны (3:48)
6. Дарбук-Джамбей (4:12)
7. Черная жемчужина (4:19)
8. Яблочный пирог (1:52)
9. Две сестры (5:02)
10. Танец круга (4:49)
11. Путь домой (4:50)
12. Кофе утром (4:49)
13. Фламенко-бис (3:53)
Продолжительность: (00:57:51)
AUDIOCHECKER v2.0 beta (build 457) - by Dester - opdester@freemail.hu
~~~~~~~~~~~~~~~~~~~~~~~~~~~~~~~~~~
-=== DO NOT EDIT THIS FILE! ===-

Path: ...\Live in Saint Petersburg CD 2

001 -=- 01 - Лес.flac -=- CDDA (100%)
002 -=- 02 - Дуновение.flac -=- CDDA (100%)
003 -=- 03 - Уличные страсти.flac -=- CDDA (100%)
004 -=- 04 - В изгнании.flac -=- CDDA (100%)
005 -=- 05 - Цветные сны.flac -=- CDDA (100%)
006 -=- 06 - Дарбук-Джамбей.flac -=- CDDA (100%)
007 -=- 07 - Черная жемчужина.flac -=- CDDA (100%)
008 -=- 08 - Яблочный пирог.flac -=- CDDA (100%)
009 -=- 09 - Две сестры.flac -=- CDDA (100%)
010 -=- 10 - Танец круга.flac -=- CDDA (100%)
011 -=- 11 - Путь домой.flac -=- CDDA (100%)
012 -=- 12 - Кофе утром.flac -=- CDDA (99%)
013 -=- 13 - Фламенко-бис.flac -=- CDDA (99%)

Summary 99.85% CDDA

216807604
Exact Audio Copy V0.99 prebeta 5 from 4. May 2009

Отчёт EAC об извлечении, выполненном 3. января 2010, 10:13

Дидюля / Live in Saint Petersburg CD 2

Дисковод: Optiarc DVD RW AD-5200S Adapter: 2 ID: 1

Режим чтения : Достоверность
Использование точного потока : Да
Отключение кэша аудио : Да
Использование указателей C2 : Нет

Коррекция смещения при чтении : 48
Способность читать области Lead-in и Lead-out : Нет
Заполнение пропущенных сэмплов тишиной : Да
Удаление блоков с тишиной в начале и конце : Нет
При вычислениях CRC использовались нулевые сэмплы : Нет
Интерфейс : Установленный внешний ASPI-интерфейс

Выходной формат : Внутренние WAV-операции
Формат сэмплов : 44.100 Гц; 16 бит; стерео

TOC извлечённого CD

Трек | Старт | Длительность | Начальный сектор | Конечный сектор
---------------------------------------------------------------------
1 | 0:00.00 | 7:02.20 | 0 | 31669
2 | 7:02.20 | 2:59.40 | 31670 | 45134
3 | 10:01.60 | 6:19.11 | 45135 | 73570
4 | 16:20.71 | 3:57.19 | 73571 | 91364
5 | 20:18.15 | 3:48.41 | 91365 | 108505
6 | 24:06.56 | 4:12.19 | 108506 | 127424
7 | 28:19.00 | 4:19.40 | 127425 | 146889
8 | 32:38.40 | 1:52.13 | 146890 | 155302
9 | 34:30.53 | 5:02.15 | 155303 | 177967
10 | 39:32.68 | 4:49.69 | 177968 | 199711
11 | 44:22.62 | 4:50.09 | 199712 | 221470
12 | 49:12.71 | 4:49.34 | 221471 | 243179
13 | 54:02.30 | 3:53.28 | 243180 | 260682

Характеристики диапазона извлечения и сообщения об ошибках

Выбранный диапазон

Имя файла I:\[R_MUSIC]\RUS\Дидюля [2009] Live in Saint Petersburg\Дидюля [2009] Live in Saint Petersburg CD 2\Дидюля - Live in Saint Petersburg CD 2.wav

Пиковый уровень 97.7 %
Качество диапазона 100.0 %
CRC копии 68EA5AB6
Копирование... OK

Ошибок не произошло

AccurateRip: сводка

Трек 1 нет в базе данных
Трек 2 нет в базе данных
Трек 3 нет в базе данных
Трек 4 нет в базе данных
Трек 5 нет в базе данных
Трек 6 нет в базе данных
Трек 7 нет в базе данных
Трек 8 нет в базе данных
Трек 9 нет в базе данных
Трек 10 нет в базе данных
Трек 11 нет в базе данных
Трек 12 нет в базе данных
Трек 13 нет в базе данных

Ни одного трека нет в базе AccurateRip

Конец отчёта
Время раздачи: 24/7 по возможности
DIDYULYA_[nnm-club.ru].torrent
 Торрент: Платиновая раздача  Зарегистрирован
 
Скачать


 Зарегистрирован:   12 Авг 2010 22:31:48
 Размер:   4,97 GB  (
 Рейтинг:   4,8 (Голосов: 220)
 Поблагодарили:   748
 Проверка:   Оформление проверено модератором 12 Авг 2010 22:43:49
Как cкачать  ·  Как раздать  ·  Правильно оформить  ·  Поднять ратио!  
Maximus911
Стаж: 9 лет
Сообщений: 98
Ratio: 1,064
Раздал: 166 GB
Поблагодарили: 399
100%
russia.gif
Спасибище!
4EXTbI
 
Стаж: 8 лет 2 мес.
Сообщений: 6968
Ratio: 378,039
Раздал: 74,65 TB
100%
Откуда: Море Байкал ®
ussr.gif
Это - край? Или появится чего-нибудь новенькое?
диарх
Стаж: 8 лет 6 мес.
Сообщений: 142
Ratio: 14,207
68%
russia.gif
огромное СПАСИБО :стеб: :стеб: :стеб: :стеб:
neotigr
Стаж: 8 лет 1 мес.
Сообщений: 343
Ratio: 7,103
Раздал: 10,15 TB
100%
russia.gif
преклоняюсь перед его мастерством, нравится очень, малорик !!!
chivlaz
Стаж: 8 лет 10 мес.
Сообщений: 316
Ratio: 35,253
100%
Откуда: г.Смела
ukraine.gif
Спасибо! Сборник достойный внимания!
Pruglo
Стаж: 7 лет 7 мес.
Сообщений: 139
Ratio: 9,867
2.97%
russia.gif
Просьба встать на раздачу
samurai4
Стаж: 9 лет 5 мес.
Сообщений: 9
Ratio: 4,937
100%
Давно слушаю, очень нравится.
Качаю в коллекцию.
Region-53
Стаж: 7 лет
Сообщений: 135
Ratio: 13,917
Раздал: 1,248 TB
100%
Откуда: Прекрасное далеко
russia.gif
Крутяк! Давно хотел такой сборник в коллекцию.

Спасибо!
:приветствую:
Показать сообщения:   
Начать новую тему   Ответить на тему    Торрент-трекер NNM-Club -> Other Styles -> Instrumental (Lossless) Часовой пояс: GMT + 3
Страницы:   Пред.  1, 2
Страница 2 из 2