Классический форум-трекер
canvas not supported
Нас вместе: 4 077 710

Винни и Слонотоп / Pooh's Heffalump Movie (2005) BDRip [H.264/720p] [PR]


 
 
RSS
Начать новую тему   Ответить на тему    Торрент-трекер NNM-Club -> Мультфильмы -> Зарубежные Мультфильмы (HD, UHD, UHD-LQ)
Автор Сообщение
icerus ®
Стаж: 9 лет 6 мес.
Сообщений: 47
Ratio: 11,801
Поблагодарили: 2311
100%
russia.gif
Винни и Слонотоп / Pooh's Heffalump Movie (2005) BDRip [H.264/720p] [PR]
«Большие приключения на большом экране»

Производство: Walt Disney / США
Жанр: Рисованая анимация, Комедия, Детский

Режиссер: Фрэнк Ниссен

Описание:
Веселые приключения забавного медвежонка Винни и его друзей продолжаются! На этот раз они отправляются на поиски ужасного Слонотопа, который поселился в их лесу. И только маленького Кенгуренка Ру они оставляют дома.
Но маленькому непоседе тоже страшно интересно увидеть невиданного зверя. Кто же первым найдет таинственного Слонотопа, и какой же он на самом деле?


Возраст: 0+ (для любой зрительской аудитории)
Рейтинг MPAA: G (нет возрастных ограничений)

Продолжительность: 01:09:09
Качество видео: BDRip
Перевод: Дублированный
Субтитры: нет

Видео: AVC/H.264, 1280x720, ~4080 Kbps
Аудио: AC3, 6 ch, 448 Kbps
Format                           : Matroska
File size : 2.19 GiB
Duration : 1h 9mn
Overall bit rate : 4 529 Kbps
Encoded date : UTC 2008-04-18 12:42:47
Writing application : mkvmerge v2.2.0 ('Turn It On Again') built on Mar 4 2008 12:58:26
Writing library : libebml v0.7.7 + libmatroska v0.8.1

Video
ID : 1
Format : AVC
Format/Info : Advanced Video Codec
Format profile : High@L5.1
Format settings, CABAC : Yes
Format settings, ReFrames : 16 frames
Muxing mode : Container profile=Unknown@5.1
Codec ID : V_MPEG4/ISO/AVC
Duration : 1h 9mn
Bit rate : 4 077 Kbps
Width : 1 280 pixels
Height : 720 pixels
Display aspect ratio : 16:9
Frame rate : 23.976 fps
Color space : YUV
Chroma subsampling : 4:2:0
Bit depth : 8 bits
Scan type : Progressive
Bits/(Pixel*Frame) : 0.185
Stream size : 1.93 GiB (88%)
Writing library : x264 core 59 r818M d4b7d2b
Encoding settings : cabac=1 / ref=16 / deblock=1:1:1 / analyse=0x3:0x113 / me=umh / subme=7 / me-prepass=0 / brdo=0 / mixed_ref=1 / me_range=16 / chroma_me=1 / trellis=2 / 8x8dct=1 / cqm=0 / deadzone=21,11 / chroma_qp_offset=0 / threads=3 / nr=0 / decimate=1 / mbaff=0 / bframes=2 / b_pyramid=1 / b_adapt=1 / b_bias=0 / direct=3 / wpredb=1 / bime=1 / keyint=250 / keyint_min=25 / scenecut=40(pre) / rc=2pass / bitrate=4077 / ratetol=1.0 / rceq='blurCplx^(1-qComp)' / qcomp=1.00 / qpmin=10 / qpmax=51 / qpstep=4 / cplxblur=20.0 / qblur=0.5 / ip_ratio=1.40 / pb_ratio=1.30 / aq=2:1.00
Language : Russian

Audio
ID : 2
Format : AC-3
Format/Info : Audio Coding 3
Mode extension : CM (complete main)
Codec ID : A_AC3
Duration : 1h 9mn
Bit rate mode : Constant
Bit rate : 448 Kbps
Channel(s) : 6 channels
Channel positions : Front: L C R, Side: L R, LFE
Sampling rate : 48.0 KHz
Bit depth : 16 bits
Stream size : 222 MiB (10%)
Title : Russian
Скриншоты:


Все одноименные релизы в Клубе

Время раздачи: 24/7 днём медленнее, ночью быстрее
Реставрация от: minerale
[NNM-Club.ru]_Vinni i Slonotop (Pooh's Heffalump Movie) [HD].mkv.torrent
 Торрент: Платиновая раздача  Зарегистрирован
 
Скачать


Примагнититься
 Зарегистрирован:   12 Сен 2019 00:01:50
 Размер:   2,19 GB  (
 Рейтинг:   4,8 (Голосов: 26)
 Поблагодарили:   112
 Проверка:   Оформление проверено модератором 12 Сен 2019 12:19:26
Как cкачать  ·  Как раздать  ·  Правильно оформить  ·  Поднять ратио!  
Kalex
Администратор
Стаж: 12 лет
Сообщений: 32232
Ratio: 114,385
Поблагодарили: 13466
100%
nnm-club.gif
Причина метки PR
icerus писал(а): Перейти к сообщению
ref=16
одного этого уже предостаточно.

Торрент перерегистрирован в рамках акции Включаем DHT в древних раздачах
Теперь вам нужно его скачать и открыть в торрент-клиенте, указав в качестве места сохранения раздаваемый файл или папку.

_________________
NNMClub и IPv6/Teredo
... если преступников недостаточно, их надо создавать. Кому нужна нация, состоящая сплошь из законопослушных граждан? Какая от нее польза? А вот издайте законы, которые нельзя ни соблюдать, ни проводить в жизнь, ни объективно трактовать, и вы получите нацию нарушителей, а значит, сможете заработать на преступлениях... /Айн Рэнд, «Атлант расправил плечи»/
Показать сообщения:   
Начать новую тему   Ответить на тему    Торрент-трекер NNM-Club -> Мультфильмы -> Зарубежные Мультфильмы (HD, UHD, UHD-LQ) Часовой пояс: GMT + 3
Страница 1 из 1