Классический форум-трекер
canvas not supported
Нас вместе: 4 077 852

Ртуть / Mercury Man / Ma noot lhek lai (2006) BDRip


 
 
RSS
Начать новую тему   Ответить на тему    Торрент-трекер NNM-Club -> Зарубежное кино -> Азиатское кино (HD*Rip/LQ, DVDRip, SATRip, VHSRip)
Автор Сообщение
fender. ®
Стаж: 9 лет
Сообщений: 719
Ratio: 44,849
Поблагодарили: 36687
100%
russia.gif
Ртуть / Mercury Man / Ma noot lhek lai (2006) BDRip
«Они сошлись - лёд и пламя»
Год выпуска: 2006
Производство: Таиланд / Baa-Ram-Ewe
Жанр: Боевик, Фантастика

Описание фильма:
Древний тибетский амулет превращает обычного пожарного из Бангкока в супергероя. Его тело становится подобно мощному источнику высокой температуры, у него появляется способность молниеносно передвигаться и очень далеко прыгать. Для супергероя очень скоро найдется сверхзадача — спасти США от афганских террористов, замышляющих разрушить страну. К тому же супермен должен одолеть Арену, которой подвластна сила холода и льда...

Режиссер: Бхандит Тонгди
Актеры: Либби Брайан, Куллет Эрик, Филип Херш, Васан Кхантаау, Джинвипа Кхеавкуня, Париня Киатбусаба, Метини Кингпайом, Эрик Маркус Шюц, Аширая Пирапаткунчая, Алаа Омузун

Продолжительность: 01:45:34
Качество видео: BDRip
Перевод: Двухголосый закадровый, профессиональный



Дата мировой премьеры:..........10 августа 2006
Дата выхода DVD релиза:.........19 августа 2010, «CP-Digital»

Видеокодек: XviD
Битрейт видео: ~1081 Kb/s
Размер кадра: 720x400
Аудио#1: AC-3, 48 kHz, 6.0 ch, 448 Kb/s, CBR | Russian
Аудио#2: AC-3, 48 kHz, 6.0 ch, 448 Kb/s, CBR | Thai
Код:

Общее
Полное имя                               : Ртуть.avi
Формат                                   : AVI
Формат/Информация                        : Audio Video Interleave
Размер файла                             : 1,47 Гбайт
Продолжительность                        : 1 ч. 45 м.
Общий поток                              : 1991 Кбит/сек
Программа кодирования                    : VirtualDubModRus 1.5.10.2 (build 2542/release)
Библиотека кодирования                   : VirtualDubMod build 2542/release

Видео
Идентификатор                            : 0
Формат                                   : MPEG-4 Visual
Профиль формата                          : Advanced Simple@L5
Параметр BVOP формата                    : 1
Параметр QPel формата                    : Нет
Параметр GMC формата                     : Без точки перехода
Параметр матрицы формата                 : Выборочная
Режим смешивания                         : Сжатый битовый поток
Идентификатор кодека                     : XVID
Идентификатор кодека/Подсказка           : XviD
Продолжительность                        : 1 ч. 45 м.
Битрейт                                  : 1081 Кбит/сек
Ширина                                   : 720 пикселей
Высота                                   : 400 пикселей
Соотношение сторон                       : 16:9
Частота кадров                           : 23,976 кадра/сек
Цветовое пространство                    : YUV
Субдискретизация насыщенности            : 4:2:0
Битовая глубина                          : 8 бит
Тип развёртки                            : Прогрессивная
Метод сжатия                             : С потерями
Бит/(Пиксели*Кадры)                      : 0.157
Размер потока                            : 817 Мбайт (54%)
Библиотека кодирования                   : XviD 1.2.1 (UTC 2008-12-04)

Аудио #1
Идентификатор                            : 1
Формат                                   : AC-3
Формат/Информация                        : Audio Coding 3
Расширение режима                        : CM (complete main)
Параметр Endianness формата              : Big
Идентификатор кодека                     : 2000
Продолжительность                        : 1 ч. 45 м.
Вид битрейта                             : Постоянный
Битрейт                                  : 448 Кбит/сек
Каналы                                   : 6 каналов
Расположение каналов                     : Front: L C R, Side: L R, LFE
Частота                                  : 48,0 КГц
Битовая глубина                          : 16 бит
Метод сжатия                             : С потерями
Размер потока                            : 338 Мбайт (22%)
Выравнивание                             : Разделение по промежуткам
Продолжительность промежутка             : 42  мс. (1,00 видеокадр)
Время предзагрузки промежутка            : 500  мс.

Аудио #2
Идентификатор                            : 2
Формат                                   : AC-3
Формат/Информация                        : Audio Coding 3
Расширение режима                        : CM (complete main)
Параметр Endianness формата              : Big
Идентификатор кодека                     : 2000
Продолжительность                        : 1 ч. 45 м.
Вид битрейта                             : Постоянный
Битрейт                                  : 448 Кбит/сек
Каналы                                   : 6 каналов
Расположение каналов                     : Front: L C R, Side: L R, LFE
Частота                                  : 48,0 КГц
Битовая глубина                          : 16 бит
Метод сжатия                             : С потерями
Размер потока                            : 338 Мбайт (22%)
Выравнивание                             : Разделение по промежуткам
Продолжительность промежутка             : 42  мс. (1,00 видеокадр)
Время предзагрузки промежутка            : 500  мс.
Скриншоты:


Время раздачи: 24/7 - круглосуточно
Реставрация от: Viсtоr
[NNM-Club.ru]_Rtut'.avi.torrent
 Торрент: Платиновая раздача  Зарегистрирован
 
Скачать


 Зарегистрирован:   02 Сен 2010 14:16:58
 Размер:   1,47 GB  (
 Рейтинг:   4,3 (Голосов: 45)
 Поблагодарили:   129
 Проверка:   Оформление проверено модератором 02 Сен 2010 20:19:51
Как cкачать  ·  Как раздать  ·  Правильно оформить  ·  Поднять ратио!  
_Low_
Стаж: 11 лет
Сообщений: 87
Ratio: 35,529
Поблагодарили: 767
100%
Откуда: Харьков
ukraine.gif
норм трешачёк
arzhanov
Стаж: 9 лет 4 мес.
Сообщений: 113
Ratio: 3,298
Раздал: 2,765 TB
100%
Откуда: г. Шахтерск о.Сахалин
russia.gif
спасибо, очень интересно :стрельба:
Показать сообщения:   
Начать новую тему   Ответить на тему    Торрент-трекер NNM-Club -> Зарубежное кино -> Азиатское кино (HD*Rip/LQ, DVDRip, SATRip, VHSRip) Часовой пояс: GMT + 3
Страница 1 из 1