Классический форум-трекер
canvas not supported
Нас вместе: 4 079 152

Чокнутые ученики Шаолиня / Crazy Shaolin Disciples / Di zi ye feng kuang (1985) DVDRip [VO]


 
 
RSS
Начать новую тему   Ответить на тему    Торрент-трекер NNM-Club -> Зарубежное кино -> Азиатское кино (HD*Rip/LQ, DVDRip, SATRip, VHSRip)
Автор Сообщение
Midas585 ®
 
Стаж: 9 лет 2 мес.
Сообщений: 278
Ratio: 107,588
Раздал: 25,92 TB
Поблагодарили: 18876
100%
Откуда: Таганрог
russia.gif
Чокнутые ученики Шаолиня / Crazy Shaolin Disciples / Di zi ye feng kuang (1985) DVDRip
Год выпуска: 1985
Производство: Гонконг / Shaw Brothers
Жанр: Боевик, Комедия

Описание фильма:
Клан Хун — главный враг династии Цин, захватившей Китай. Один их Хунов вынужден спрятаться от преследования властями в монастыре Шаолинь. За ним направлен секретный охранник дворца, являющийся первоклассным бойцом. Вместе с Хуном в монастырь уходит еще пара ребят, которые быстро находят общий язык с обучающимися там мирянами. Но миряне постоянно задирают молодых монахов, а те в долгу не остаются. В общем, они весело проводят время, пока враг идет по следу...

Режиссер: Kar-Hung Yau
Актеры: Шен Чан, Hsiao-mei Chang, Чин Сиу Хоу, Филип Квок, Хой Сан Ли, Цзя-Хуэй Лю, Лье Ло, Менг Ло, Юе Вонг, Цю Юен

Продолжительность: 01:27:42
Качество видео: DVDRip
Перевод: Одноголосый закадровый



Дата мировой премьеры: 5 января 1985

Видео: MPEG-4 XviD, 720x304 (2.35:1), 29.970 fps, ~2164 Kb/s (0.330 bit/pixel)
Аудио: AC-3, 48.0 KHz, 2 ch, 192 Kb/s, CBR | Russian
Код:

Общее
Полное имя                               : Чокнутые ученики Шаолиня.avi
Формат                                   : AVI
Формат/Информация                        : Audio Video Interleave
Размер файла                             : 1,45 Гбайт
Продолжительность                        : 1 ч. 27 м.
Общий поток                              : 2368 Кбит/сек
Программа кодирования                    : VirtualDubMod 1.5.10.2 (build 2540/release)
Библиотека кодирования                   : VirtualDubMod build 2540/release

Видео
Идентификатор                            : 0
Формат                                   : MPEG-4 Visual
Профиль формата                          : Advanced Simple@L5
Параметр BVOP формата                    : 1
Параметр QPel формата                    : Нет
Параметр GMC формата                     : Без точки перехода
Параметр матрицы формата                 : Default (H.263)
Идентификатор кодека                     : XVID
Идентификатор кодека/Подсказка           : XviD
Продолжительность                        : 1 ч. 27 м.
Битрейт                                  : 2164 Кбит/сек
Ширина                                   : 720 пикселей
Высота                                   : 304 пикселя
Соотношение сторон                       : 2,35:1
Частота кадров                           : 29,970 кадров/сек
Цветовое пространство                    : YUV
Субдискретизация насыщенности            : 4:2:0
Битовая глубина                          : 8 бит
Тип развёртки                            : Прогрессивная
Метод сжатия                             : С потерями
Бит/(Пиксели*Кадры)                      : 0.330
Размер потока                            : 1,33 Гбайт (91%)
Библиотека кодирования                   : XviD 1.2.0.dev47 (UTC 2006-11-01)

Аудио
Идентификатор                            : 1
Формат                                   : AC-3
Формат/Информация                        : Audio Coding 3
Расширение режима                        : CM (complete main)
Параметр Endianness формата              : Big
Идентификатор кодека                     : 2000
Продолжительность                        : 1 ч. 27 м.
Вид битрейта                             : Постоянный
Битрейт                                  : 192 Кбит/сек
Каналы                                   : 2 канала
Расположение каналов                     : Front: L R
Частота                                  : 48,0 КГц
Битовая глубина                          : 16 бит
Метод сжатия                             : С потерями
Размер потока                            : 120 Мбайт (8%)
Выравнивание                             : Разделение по промежуткам
Продолжительность промежутка             : 33  мс. (1,00 видеокадр)
Время предзагрузки промежутка            : 500  мс.
Скриншоты:


Время раздачи: 24/7 - круглосуточно
Реставрация от: Viсtоr
[NNM-Club.ru]_CHoknutyie ucheniki SHaolinya.avi.torrent
 Торрент: Платиновая раздача  Зарегистрирован
 
Скачать


 Зарегистрирован:   06 Сен 2010 08:04:22
 Размер:   1,45 GB  (
 Рейтинг:   4,8 (Голосов: 20)
 Поблагодарили:   57
 Проверка:   Оформление проверено модератором 08 Сен 2010 16:12:27
Как cкачать  ·  Как раздать  ·  Правильно оформить  ·  Поднять ратио!  
Загрузка...
zorbag
Стаж: 9 лет 2 мес.
Сообщений: 50
Ratio: 20,342
5.88%
Midas585
БЛАГОДАРЮ! фильмчег порадовал... для любителей "старых" китайских "боевиков" !
Показать сообщения:   
Начать новую тему   Ответить на тему    Торрент-трекер NNM-Club -> Зарубежное кино -> Азиатское кино (HD*Rip/LQ, DVDRip, SATRip, VHSRip) Часовой пояс: GMT + 3
Страница 1 из 1