Классический форум-трекер
canvas not supported
Нас вместе: 4 103 459

Бишунмо – летящий воин / Flying Warriors / Bichunmoo (2000) BDRip [H.264]


 
 
RSS
Начать новую тему   Ответить на тему    Торрент-трекер NNM-Club -> Зарубежное кино -> Азиатское кино (HD*Rip/LQ, DVDRip, SATRip, VHSRip)
Автор Сообщение
SquallLeonhart ®
Стаж: 9 лет 8 мес.
Сообщений: 2339
Ratio: 97,93
Раздал: 41,37 TB
Поблагодарили: 1525
100%
Откуда: Final Fantasy
nnm-club.gif
Бишунмо – летящий воин / Flying Warriors / Bichunmoo (2000) BDRip [H.264]
«A legendary story of swordsman's love and fate»
Год выпуска: 2000
Производство: Южная Корея / Taewon Entertainment
Жанр: Фэнтези, Боевик, Драма, Мелодрама

Описание фильма:
Действие картины происходит в Китае 14-го века. В то время Поднебесной правила Монголия. Китай раздирали междоусобные войны. Именно тогда появились в Китае таинственные, непобедимые летающие воины. Они в совершенстве владели секретами боевых искусств. Они умели красиво убивать и красиво умирать. И они беспрекословно подчинялись своему мрачному предводителю Чахалангу.
"Летящий воин" - это невероятные по красоте бои на земле, в воде и в воздухе, и столь же невероятно красивая и грустная история любви бесстрашного воина и прекрасной монголки Великолепный фильм для любителей восточного творчества.Фильм не оставит равнодушным никого кто бы его просмотрел.
Музыка - полный драйв!
Невероятно красивая, весьма затянутая и очень непритязательная сказка для взрослых. Наивная, как первородный миф, и потому пребывающая вне досягаемости кинокритиков и их смертоносных стрел, смоченных то ли ядом кураре, то ли хлорцианом. Критики могут сколько угодно рассуждать о том, и о сем, но ценность мифа в том и состоит, что он переживет как отдельных людей, так и отдельные века. Фильм "Бишунмо", скорее всего, через пару десятков лет забудется, а вот легенда, на основе которой сделан его сюжет, из мирового фольклора вряд ли исчезнет...

Режиссер: Янг-джан Ким
Актеры: Шин Хён Чжун, Ким Хи Сун, Чон Джин Ён, Чан Дон Джик, Ю-джеонг Чой, Ки Джу Бон, Пан Хеп, Хак-чхоль Ким, Чу-ён Ким, Ким Су Ро

Продолжительность: 01:53:28
Качество видео: BDRip
Перевод: Двухголосый закадровый, профессиональный



Дата мировой премьеры: 1 июля 2000
Дата российской премьеры: 17 января 2002, «Союз»
Дата выхода DVD релиза: 24 августа 2006, «Союз-Видео»

Видео: MPEG-4 AVC/H.264, 716x572@1018x572 (16:9), 25.000 fps, ~2308 Kb/s (0.225 bit/pixel)
Аудио: AC-3, 48.0 KHz, 5.1 ch, 448 Kb/s, CBR | Russian
Код:
Общее
Уникальный идентификатор                 : 220963603603052068494328060718564463623 (0xA63C0AC5BF4900C5B5A2779654435407)
Полное имя                               : Bichunmoo.mkv
Формат                                   : Matroska
Версия формата                           : Version 2
Размер файла                             : 2,19 Гбайт
Продолжительность                        : 1 ч. 53 м.
Общий поток                              : 2757 Кбит/сек
Дата кодирования                         : UTC 2009-08-13 05:39:56
Программа кодирования                    : mkvmerge v2.9.0 ('Moanin'') built on May 22 2009 17:46:31
Библиотека кодирования                   : libebml v0.7.7 + libmatroska v0.8.1

Видео
Идентификатор                            : 1
Формат                                   : AVC
Формат/Информация                        : Advanced Video Codec
Профиль формата                          : High@L3.1
Параметр CABAC формата                   : Да
Параметр ReFrames формата                : 8 кадров
Идентификатор кодека                     : V_MPEG4/ISO/AVC
Продолжительность                        : 1 ч. 53 м.
Битрейт                                  : 2308 Кбит/сек
Ширина                                   : 716 пикселей
Высота                                   : 572 пикселя
Соотношение сторон                       : 16:9
Соотношение сторон в оригинале           : 3:2
Режим частоты кадров                     : Постоянный
Частота кадров                           : 25,000 кадров/сек
Цветовое пространство                    : YUV
Субдискретизация насыщенности            : 4:2:0
Битовая глубина                          : 8 бит
Тип развёртки                            : Прогрессивная
Бит/(Пиксели*Кадры)                      : 0.225
Размер потока                            : 1,79 Гбайт (82%)
Заголовок                                : Rip by cepreu
Библиотека кодирования                   : x264 core 68 r1195 5d75a9b
Настройки программы                      : cabac=1 / ref=8 / deblock=1:-1:-1 / analyse=0x3:0x133 / me=tesa / subme=9 / psy_rd=1.0:0.0 / mixed_ref=1 / me_range=24 / chroma_me=1 / trellis=2 / 8x8dct=1 / cqm=0 / deadzone=21,11 / chroma_qp_offset=-2 / threads=3 / nr=0 / decimate=0 / mbaff=0 / bframes=6 / b_pyramid=1 / b_adapt=2 / b_bias=0 / direct=3 / wpredb=1 / keyint=250 / keyint_min=25 / scenecut=40 / rc=2pass / bitrate=2308 / ratetol=1.0 / qcomp=0.60 / qpmin=10 / qpmax=51 / qpstep=4 / cplxblur=20.0 / qblur=0.5 / ip_ratio=1.40 / pb_ratio=1.30 / aq=1:1.00
Язык                                     : Russian
Default                                  : Да
Forced                                   : Нет

Аудио
Идентификатор                            : 2
Формат                                   : AC-3
Формат/Информация                        : Audio Coding 3
Расширение режима                        : CM (complete main)
Параметр Endianness формата              : Big
Идентификатор кодека                     : A_AC3
Продолжительность                        : 1 ч. 53 м.
Вид битрейта                             : Постоянный
Битрейт                                  : 448 Кбит/сек
Каналы                                   : 6 каналов
Расположение каналов                     : Front: L C R, Side: L R, LFE
Частота                                  : 48,0 КГц
Битовая глубина                          : 16 бит
Метод сжатия                             : С потерями
Размер потока                            : 364 Мбайт (16%)
Заголовок                                : MVO
Язык                                     : Russian
Default                                  : Да
Forced                                   : Нет
Скриншоты:


Реставрация от: Viсtоr
[NNM-Club.ru]_Bichunmoo.mkv.torrent
 Торрент: Платиновая раздача  Зарегистрирован
 
Скачать


 Зарегистрирован:   21 Сен 2010 22:17:52
 Размер:   2,19 GB  (
 Рейтинг:   4,4 (Голосов: 59)
 Поблагодарили:   124
 Проверка:   Оформление проверено модератором 24 Сен 2010 23:33:13
Как cкачать  ·  Как раздать  ·  Правильно оформить  ·  Поднять ратио!  

_________________
md5
Uploaders
 
Стаж: 12 лет 11 мес.
Сообщений: 385
Ratio: 46,453
Поблагодарили: 1937
100%
невероятно крутой фильм!
Sergio369
Стаж: 10 лет 2 мес.
Сообщений: 7
Ratio: 3,313
100%
Откуда: Москва
russia.gif
Фильм выше всех похвал! Смотрел его ещё в 2000-м. Если будет выложен [1080p] BDRip, цены Вам не будет!
_i_r_i_w_a_
Стаж: 9 лет 9 мес.
Сообщений: 136
Ratio: 16,02
Поблагодарили: 3440
100%
Откуда: Одесса
ukraine.gif
Фильм суперский и трогательный!! Советую всем!! Автору :респект:
1Lapka1
Стаж: 10 лет 5 мес.
Сообщений: 44
Ratio: 9,056
100%
russia.gif
отличный фильм!!! много можно рассказывать о нем,но лучше посмотреть!!!да к стати,о посмотреть,кто знает,почему торрент-файл не качается?...

_________________
скорость инета мелкая...вот и отдал мало...
Tets
Uploader 300+
Стаж: 12 лет 6 мес.
Сообщений: 1537
Ratio: 375,225
Раздал: 494,1 TB
Поблагодарили: 4250
100%
ussr.gif
Фильм изумительный, неоднократно смотрел и ещё гляну. Но правда фильм вытягивает только сюжет, т.к. реализация подкачала - много дешёвых и убогих спецэффектов, зато СЮЖЕТ и актёры великолепны!
awphilippov
Стаж: 9 лет 6 мес.
Сообщений: 140
Ratio: 3,464
Раздал: 1,195 TB
Поблагодарили: 1225
100%
Откуда: Саратов
russia.gif
Изумительный фильм. Его не сюжет вытягивает - фильм и есть сюжет, а крутые и реалистичные спецэффекты просто не нужны - они лишь антураж, как фанерные декорации в театре... Игра актеров - нечто...
Lingi
Стаж: 8 лет 2 мес.
Сообщений: 2238
Ratio: 24,745
100%
с этого фильма началась моя любовь к корейскому кинематографу.
Kedmi
Стаж: 1 год 3 мес.
Сообщений: 1098
Ratio: 9,533
100%
witch.png
Нда.Нет слов.Начитался хвалебных од О нет Посмотрел,это совершенно не о чём :огорчение:
Показать сообщения:   
Начать новую тему   Ответить на тему    Торрент-трекер NNM-Club -> Зарубежное кино -> Азиатское кино (HD*Rip/LQ, DVDRip, SATRip, VHSRip) Часовой пояс: GMT + 3
Страница 1 из 1