Классический форум-трекер
canvas not supported
Нас вместе: 4 076 676

Ручной замок Шаолинь / Shaolin Handlock / Shi zi mo hou shou (1978) DVDRip [AVO]


 
 
RSS
Начать новую тему   Ответить на тему    Торрент-трекер NNM-Club -> Зарубежное кино -> Азиатское кино (HD*Rip/LQ, DVDRip, SATRip, VHSRip)
Автор Сообщение
Борисыч ®
Uploader 100+
 
Стаж: 9 лет 5 мес.
Сообщений: 298
Ratio: 893,481
Поблагодарили: 12381
100%
Ручной замок Шаолинь / Shaolin Handlock / Shi zi mo hou shou (1978) DVDRip
«The wheels of death are in motion!»

Производство: Гонконг / Shaw Brothers
Жанр: Боевик, Кунг-Фу

Режиссер: Менг Хуа Хо
Актеры: Дэвид Чианг, Пинг Чен, Лье Ло, Уай-Ман Чан, Lak Apichat, Шен Чан, Хсю Хсиа, Кара Хуи, Куанг Ло, Вэй Ло

Описание:
Жил на свете простой китайский парень Ли Шиньенг, вроде и не было в нём ничего примечательного, если бы не его папа: известный мастер Ли Бэй, создавший стиль «Шаолиньских рук-замков». Но однажды мастер Бэй был убит. Проведя расследование, Шиньенг узнал, что убийца отправился в Бангкок и бросился за ним в погоню. Прибыв на место, мститель узнаёт улицу и номер борделя, в котором отдыхает убийца. Допросив киллера, Шиньенг узнаёт, что заказчиком убийства является местный авторитет Лин Хао. Шиньенг устраивается к Лин Хао телохранителем, чтобы втеревшись в доверие, совершить свою месть...



Продолжительность: 01:28:09
Качество видео: DVDRip
Перевод: Авторский одноголосый (Сергей Кузнецов)

Видео: XviD, 720x304 (2.35:1), ~2153 Kbps, 29.970 fps (0.328 bit/pixel)
Аудио: AC3, 2.0 ch, 192 Kbps - Russian
Код: выделить все
Общее
Полное имя                               : Shaolin Hand Lock.avi
Формат                                   : AVI
Формат/Информация                        : Audio Video Interleave
Размер файла                             : 1,45 Гбайт
Продолжительность                        : 1 ч. 28 м.
Общий поток                              : 2356 Кбит/сек
Программа кодирования                    : VirtualDubMod 1.5.10.2 (build 2540/release)
Библиотека кодирования                   : VirtualDubMod build 2540/release

Видео
Идентификатор                            : 0
Формат                                   : MPEG-4 Visual
Профиль формата                          : Advanced Simple@L5
Параметр BVOP формата                    : 1
Параметр QPel формата                    : Нет
Параметр GMC формата                     : Без точки перехода
Параметр матрицы формата                 : Default (H.263)
Идентификатор кодека                     : XVID
Идентификатор кодека/Подсказка           : XviD
Продолжительность                        : 1 ч. 28 м.
Битрейт                                  : 2153 Кбит/сек
Ширина                                   : 720 пикселей
Высота                                   : 304 пикселя
Соотношение сторон                       : 2,35:1
Частота кадров                           : 29,970 кадров/сек
Цветовое пространство                    : YUV
Субдискретизация насыщенности            : 4:2:0
Битовая глубина                          : 8 бит
Тип развёртки                            : Прогрессивная
Метод сжатия                             : С потерями
Бит/(Пиксели*Кадры)                      : 0.328
Размер потока                            : 1,33 Гбайт (91%)
Библиотека кодирования                   : XviD 1.2.0.dev47 (UTC 2006-11-01)

Аудио
Идентификатор                            : 1
Формат                                   : AC-3
Формат/Информация                        : Audio Coding 3
Расширение режима                        : CM (complete main)
Параметр Endianness формата              : Big
Идентификатор кодека                     : 2000
Продолжительность                        : 1 ч. 27 м.
Вид битрейта                             : Постоянный
Битрейт                                  : 192 Кбит/сек
Каналы                                   : 2 канала
Расположение каналов                     : Front: L R
Частота                                  : 48,0 КГц
Битовая глубина                          : 16 бит
Метод сжатия                             : С потерями
Размер потока                            : 121 Мбайт (8%)
Выравнивание                             : Разделение по промежуткам
Продолжительность промежутка             : 33  мс. (1,00 видеокадр)
Время предзагрузки промежутка            : 500  мс.
Скриншоты:

[NNM-Club.ru]_Shaolin Hand Lock.avi.torrent
 Торрент: Платиновая раздача  Зарегистрирован
 
Скачать


Примагнититься
 Зарегистрирован:   05 Июл 2019 13:04:13
 Размер:   1,45 GB  (
 Рейтинг:   4,4 (Голосов: 23)
 Поблагодарили:   94
 Проверка:   Оформление проверено модератором 05 Июл 2019 19:52:31
Как cкачать  ·  Как раздать  ·  Правильно оформить  ·  Поднять ратио!  
asvabaditelb
Стаж: 10 лет
Сообщений: 75
Ratio: 4,095
Поблагодарили: 321
100%
belarus.gif
:респект:
karfagen1975
Модератор Видео

Online
Стаж: 8 лет 8 мес.
Сообщений: 2985
Ratio: 116,136
Раздал: 68,46 TB
Поблагодарили: 258390
100%
ussr.gif
Торрент перерегистрирован на трекере в рамках акции Включаем DHT в древних раздачах (Обновлено)
Теперь вам нужно его скачать и открыть в торрент-клиенте, указав в качестве места сохранения раздаваемый файл или папку.
Показать сообщения:   
Начать новую тему   Ответить на тему    Торрент-трекер NNM-Club -> Зарубежное кино -> Азиатское кино (HD*Rip/LQ, DVDRip, SATRip, VHSRip) Часовой пояс: GMT + 3
Страница 1 из 1