Классический форум-трекер
canvas not supported
Нас вместе: 4 077 958

Мухаммед Али. Карьера (45 боев + доп.материалы) / Muhammad Ali. Career Set


Страницы:   Пред.  1, 2 
 
RSS
Начать новую тему   Ответить на тему    Торрент-трекер NNM-Club -> Спорт и активный отдых -> Бокс
Автор Сообщение
D.POOLY ®
Стаж: 9 лет 6 мес.
Сообщений: 123
Ratio: 60,474
Раздал: 6,646 TB
Поблагодарили: 8927
100%
malta.gif
Мухаммед Али. Карьера (45 боев + доп.материалы) / Muhammad Ali. Career Set

Вид спорта: Бокс
Участники: Мухаммед Али и ....
Продолжительность: свыше 20-ти часов
Комментарий: Профессиональный (одноголосый)
Язык комментариев: Английский ,Украинский (с логотипом МегаСпорт ,см.скрины) ,Русский (две нарезки в доп.материалах)

Описание:
В этот сборник вошло 45 его боев на профессиональном ринге. Также в составе данной раздачи присутствуют альтернативные версии записей некоторых его поединков (см. информацию в скобках ,в имени файла) ,отдельные и сериями документальные фильмы,в которых отражена жизнь Али. Все документалки изобилуют фрагментами из его боев.

Мухаммед Али (англ. Muhammad Ali; урождённый Кассиус Клей, англ. Cassius Marcellus Clay; род. 17 января 1942) — легендарный американский боксёр. Чемпион Олимпийских игр 1960 года в полутяжелом весе. Многократный чемпион мира среди профессионалов (в 1964—1974) в тяжёлом весе. Основоположник современного бокса. «Порхать как бабочка и жалить как пчела» — эта тактическая схема, придуманная Али, была позже взята на вооружение многими боксерами во всем мире. В 1999 Sports Illustrated and the BBC назвали Али «Спортсменом века»
***
Он всегда стремился стать величайшим ,и он стал им! Яркий боксерский талант, скорость и потрясающая реакция делали его ,практически ,непобедимым на ринге. Мухаммед Али действительно порхал по рингу ,вводя своих противников в полное замешательство своей техникой ,тактически грамотным ведением поединка , и постоянными подначками. Талантливая личность ,великий актер профессионального ринга! Но время властно над всеми. И рано ,или поздно, реакция притупляется ,скорость падает, да и сама жизнь вводит свои коррективы...
Код:
Общее
Полное имя                               : Muhammad Ali. Career Set +\Muhammad.Ali.The.Whole.Story.DVD1.CD1.avi
Формат                                   : AVI
Формат/Информация                        : Audio Video Interleave
Размер файла                             : 702 Мбайт
Продолжительность                        : 1 ч. 26 м.
Общий поток                              : 1138 Кбит/сек
Программа кодирования                    : FairUse Wizard - http://fairusewizard.com
Библиотека кодирования                   : The best and REALLY easy backup tool

Видео
Идентификатор                            : 0
Формат                                   : AVC
Формат/Информация                        : Advanced Video Codec
Профиль формата                          : Main@L5.1
Параметр CABAC формата                   : Да
Параметр ReFrames формата                : 2 кадра
Идентификатор кодека                     : H264
Продолжительность                        : 1 ч. 26 м.
Битрейт                                  : 998 Кбит/сек
Ширина                                   : 576 пикселей
Высота                                   : 432 пикселя
Соотношение сторон                       : 4:3
Частота кадров                           : 29,970 (30000/1001) кадров/сек
Цветовое пространство                    : YUV
Субдискретизация насыщенности            : 4:2:0
Битовая глубина                          : 8 бит
Тип развёртки                            : Прогрессивная
Бит/(Пиксели*Кадры)                      : 0.134
Размер потока                            : 616 Мбайт (88%)
Библиотека кодирования                   : x264 core 47 svn-532
Настройки программы                      : cabac=1 / ref=1 / deblock=1:0:0 / analyse=0x1:0x131 / me=hex / subme=5 / brdo=0 / mixed_ref=0 / me_range=16 / chroma_me=1 / trellis=1 / 8x8dct=0 / cqm=0 / chroma_qp_offset=0 / slices=1 / nr=0 / decimate=1 / bframes=2 / b_pyramid=0 / b_adapt=1 / b_bias=0 / direct=2 / wpredb=1 / bime=0 / keyint=250 / keyint_min=25 / scenecut=40 / rc=2pass / bitrate=998 / ratetol=1.0 / rceq='blurCplx^(1-qComp)' / qcomp=0.60 / qpmin=10 / qpmax=51 / qpstep=4 / cplxblur=20.0 / qblur=0.5 / ip_ratio=1.40 / pb_ratio=1.30

Аудио
Идентификатор                            : 1
Формат                                   : MPEG Audio
Версия формата                           : Version 1
Профиль формата                          : Layer 3
Режим                                    : Joint stereo
Расширение режима                        : MS Stereo
Идентификатор кодека                     : 55
Идентификатор кодека/Подсказка           : MP3
Продолжительность                        : 1 ч. 26 м.
Вид битрейта                             : Постоянный
Битрейт                                  : 128 Кбит/сек
Каналы                                   : 2 канала
Частота                                  : 48,0 КГц
Метод сжатия                             : С потерями
Размер потока                            : 78,9 Мбайт (11%)
Выравнивание                             : Соединение по промежуткам
Продолжительность промежутка             : 33  мс. (1,00 видеокадр)
Время предзагрузки промежутка            : 504  мс.
Библиотека кодирования                   : LAME3.97b
Настройки программы                      : -m j -V 4 -q 2 -lowpass 17 -b 128


Время раздачи: 24/7
[NNMClub.to]_Muhammad Ali. Career Set +.torrent
 Торрент: Платиновая раздача  Зарегистрирован
 
Скачать


Примагнититься
 Зарегистрирован:   04 Июн 2016 18:21:41
 Размер:   46,1 GB  (
 Рейтинг:   4,8 (Голосов: 54)
 Поблагодарили:   215
 Проверка:   Оформление проверено модератором 04 Июн 2016 18:28:12
Как cкачать  ·  Как раздать  ·  Правильно оформить  ·  Поднять ратио!  
wtf1972
Стаж: 5 лет 9 мес.
Сообщений: 316
Ratio: 32,398
100%
russia.gif
boba88 писал(а): Перейти к сообщению
wtf1972 писал(а): Перейти к сообщению
Доброго времени суток.Предложение к автору так как объём не маленький может есть смысл сделать так две папки в одной бои в другой всё остальное дабы была возможность скачать необходимое нужны человеку бои убрал галочку с допов и скачал бои и наоборот. =)
А кто не даёт самостоятельно выбрать желаемые файлы? :задумался:

Не даёт поистине фантастическая лень мешающая разбираться в длинном списке мелкими буковками на незнакомом языке. =)
BOB2763
Стаж: 9 лет 1 мес.
Сообщений: 830
Ratio: 1,909
100%
Samoa.gif
Светлая память величайшему боксеру всех времен и народов.
Показать сообщения:   
Начать новую тему   Ответить на тему    Торрент-трекер NNM-Club -> Спорт и активный отдых -> Бокс Часовой пояс: GMT + 3
Страницы:   Пред.  1, 2
Страница 2 из 2