Классический форум-трекер
canvas not supported
Нас вместе: 4 079 134

Слёзы для тебя / Tears for You / Nada so so (2006) DVDRip [JP/RU Sub]


 
 
RSS
Начать новую тему   Ответить на тему    Торрент-трекер NNM-Club -> Зарубежное кино -> Азиатское кино (HD*Rip/LQ, DVDRip, SATRip, VHSRip)
Автор Сообщение
ScripTuS ®
 
Стаж: 9 лет 4 мес.
Сообщений: 813
Ratio: 124,221
Раздал: 29,69 TB
Поблагодарили: 9584
100%
armenia.gif
Слёзы для тебя / Tears for You / Nada so so (2006) DVDRip [JP/RU Sub]
Год выпуска: 2006
Производство: Япония / Amuse, Horipro, Mainichi Broadcasting System (MBS), Toho Company, Tokyo Broadcasting System (TBS)
Жанр: Драма, Мелодрама, Романтика

Описание фильма:
Эта история о сводных брате и сестре Йотаро и Каору. Йотаро недавно исполнился 21 год, он много работает, чтобы заботиться о своей сестре, которая живёт в маленькой деревушке на острове, и чтобы исполнить мечту — открыть свой ресторан. Забот у него становится вдвое больше когда к нему в Окинаву приезжает сестра, чтобы жить с ним и учиться в хорошей средней школе...

Режиссер: Нобухиро Дои
Актеры: Сатоси Цумабуки, Масами Нагасава, Кумико Асо, Эйитиро Фунакоси, Исао Хасидзумэ, Рёхеи Хирота, Кёко Коидзуми, Аико Моришита, Тацуя Накамура, Мао Сасаки

Продолжительность: 01:57:43
Качество видео: DVDRip
Перевод: Субтитры (Rif Robin)
Язык субтитров: Русский
Вид субтитров: Отдельным файлом (*.srt)



Дата мировой премьеры: 30 сентября 2006

Видео: MPEG-4 XviD, 640x336 (1.905:1), 23.976 fps, ~1352 Kb/s (0.262 bit/pixel)
Аудио: AC-3, 48.0 KHz, 5.1 ch, 384 Kb/s, CBR | Japanese
Код:
Общее
Полное имя                               : Nada Sou Sou-CD1.avi
Формат                                   : AVI
Формат/Информация                        : Audio Video Interleave
Размер файла                             : 701 Мбайт
Продолжительность                        : 56 м.
Общий поток                              : 1745 Кбит/сек
Программа кодирования                    : Nandub v1.0rc2
Библиотека кодирования                   : Nandub build 1852/release

Видео
Идентификатор                            : 0
Формат                                   : MPEG-4 Visual
Профиль формата                          : Advanced Simple@L5
Параметр BVOP формата                    : 2
Параметр QPel формата                    : Нет
Параметр GMC формата                     : Без точки перехода
Параметр матрицы формата                 : Default (MPEG)
Идентификатор кодека                     : XVID
Идентификатор кодека/Подсказка           : XviD
Продолжительность                        : 56 м.
Битрейт                                  : 1352 Кбит/сек
Ширина                                   : 640 пикселей
Высота                                   : 336 пикселей
Соотношение сторон                       : 1,905
Частота кадров                           : 23,976 кадра/сек
Цветовое пространство                    : YUV
Субдискретизация насыщенности            : 4:2:0
Битовая глубина                          : 8 бит
Тип развёртки                            : Прогрессивная
Метод сжатия                             : С потерями
Бит/(Пиксели*Кадры)                      : 0.262
Размер потока                            : 543 Мбайт (77%)
Библиотека кодирования                   : XviD 1.1.0 (UTC 2005-11-22)

Аудио
Идентификатор                            : 1
Формат                                   : AC-3
Формат/Информация                        : Audio Coding 3
Расширение режима                        : CM (complete main)
Параметр Endianness формата              : Big
Идентификатор кодека                     : 2000
Продолжительность                        : 56 м.
Вид битрейта                             : Постоянный
Битрейт                                  : 384 Кбит/сек
Каналы                                   : 6 каналов
Расположение каналов                     : Front: L C R, Side: L R, LFE
Частота                                  : 48,0 КГц
Битовая глубина                          : 16 бит
Метод сжатия                             : С потерями
Размер потока                            : 154 Мбайт (22%)
Выравнивание                             : Разделение по промежуткам
Продолжительность промежутка             : 42  мс. (1,00 видеокадр)
Время предзагрузки промежутка            : 500  мс.
Код:
Общее
Полное имя                               : Nada Sou Sou-CD2.avi
Формат                                   : AVI
Формат/Информация                        : Audio Video Interleave
Размер файла                             : 700 Мбайт
Продолжительность                        : 1 ч. 1 м.
Общий поток                              : 1589 Кбит/сек
Программа кодирования                    : Nandub v1.0rc2
Библиотека кодирования                   : Nandub build 1852/release

Видео
Идентификатор                            : 0
Формат                                   : MPEG-4 Visual
Профиль формата                          : Advanced Simple@L5
Параметр BVOP формата                    : 2
Параметр QPel формата                    : Нет
Параметр GMC формата                     : Без точки перехода
Параметр матрицы формата                 : Default (MPEG)
Идентификатор кодека                     : XVID
Идентификатор кодека/Подсказка           : XviD
Продолжительность                        : 1 ч. 1 м.
Битрейт                                  : 1196 Кбит/сек
Ширина                                   : 640 пикселей
Высота                                   : 336 пикселей
Соотношение сторон                       : 1,905
Частота кадров                           : 23,976 кадра/сек
Цветовое пространство                    : YUV
Субдискретизация насыщенности            : 4:2:0
Битовая глубина                          : 8 бит
Тип развёртки                            : Прогрессивная
Метод сжатия                             : С потерями
Бит/(Пиксели*Кадры)                      : 0.232
Размер потока                            : 527 Мбайт (75%)
Библиотека кодирования                   : XviD 1.1.0 (UTC 2005-11-22)

Аудио
Идентификатор                            : 1
Формат                                   : AC-3
Формат/Информация                        : Audio Coding 3
Расширение режима                        : CM (complete main)
Параметр Endianness формата              : Big
Идентификатор кодека                     : 2000
Продолжительность                        : 1 ч. 1 м.
Вид битрейта                             : Постоянный
Битрейт                                  : 384 Кбит/сек
Каналы                                   : 6 каналов
Расположение каналов                     : Front: L C R, Side: L R, LFE
Частота                                  : 48,0 КГц
Битовая глубина                          : 16 бит
Метод сжатия                             : С потерями
Задержка видео                           : 27 мс.
Размер потока                            : 169 Мбайт (24%)
Выравнивание                             : Разделение по промежуткам
Продолжительность промежутка             : 42  мс. (1,00 видеокадр)
Время предзагрузки промежутка            : 500  мс.

Скриншоты:


Реставрация от: Viсtоr
Nada Sou Sou [NNM-Club.Ru].torrent
 Торрент: Золотая раздача  Зарегистрирован
 
Зарегистрируйтесь и скачайте торрент!
14 KB

 Зарегистрирован:   11 Окт 2010 02:30:00
 Размер:   1,37 GB  (
 Рейтинг:    (Голосов: 5)
 Поблагодарили:   8
 Проверка:   Оформление проверено модератором 15 Окт 2010 22:44:01
Как cкачать  ·  Как раздать  ·  Правильно оформить  ·  Поднять ратио!  
Загрузка...
Показать сообщения:   
Начать новую тему   Ответить на тему    Торрент-трекер NNM-Club -> Зарубежное кино -> Азиатское кино (HD*Rip/LQ, DVDRip, SATRip, VHSRip) Часовой пояс: GMT + 3
Страница 1 из 1