Классический форум-трекер
canvas not supported
Нас вместе: 4 079 191

Ограбление по ... (1978) DVDRip


Страницы:  1, 2  След. 
 
RSS
Начать новую тему   Ответить на тему    Торрент-трекер NNM-Club -> Мультфильмы -> Отечественные Мультфильмы (HD*Rip/LQ, DVDRip, SATRip, VHSRip)
Автор Сообщение
Framm ®
Стаж: 9 лет 8 мес.
Сообщений: 2596
Ratio: 16,11
Раздал: 2,813 TB
Поблагодарили: 33674
100%
Ограбление по ... (1978) DVDRip
Год выпуска: 1978
Жанр: Для взрослых

Описание:
Мультфильм состоит из четырёх новелл, каждая из которых показывает ограбление банка с «характерными особенностями» той или иной страны (США, Франция, Италия и СССР). Каждая новелла пародирует детективные фильмы соответствующих стран 1960—70-ых годов, используется множество клише из них, а рисованные герои похожи на популярных актёров того времени (Луи де Фюнес, Софи Лорен, Савелий Крамаров и других). Заставка мультфильма является юмористически изменённой заставкой американской кинокомпании Metro-Goldwyn-Mayer — льва MGM «выкидывает» неожиданно появившийся Чебурашка, и занимает его место.



Режиссер: Ефим Гамбург
Продолжительность: 00:19:56
Перевод: Оригинальный

Видеокодек: Xvid
Битрейт видео: 25.00fps, 1396Kbps
Размер кадра: 672x512
Качество видео: DVDRip
Аудиокодек: AC3 2.0
Битрейт аудио: 48000Hz, stereo, 192kbps
Код: выделить все
Общее
Полное имя                               :Ограбление по...avi
Формат                                   : AVI
Формат/Информация                        : Audio Video Interleave
Размер файла                             : 228 Мбайт
Продолжительность                        : 19 м.
Общий поток                              : 1598 Кбит/сек
Программа кодирования                    : VirtualDubMod 1.5.10.2 (build 2540/release)
Библиотека кодирования                   : VirtualDubMod build 2540/release

Видео
Идентификатор                            : 0
Формат                                   : MPEG-4 Visual
Профиль формата                          : Advanced Simple@L5
Параметр BVOP формата                    : 2
Параметр QPel формата                    : Нет
Параметр GMC формата                     : Без точки перехода
Параметр матрицы формата                 : Default (H.263)
Режим смешивания                         : Сжатый битовый поток
Идентификатор кодека                     : XVID
Идентификатор кодека/Подсказка           : XviD
Продолжительность                        : 19 м.
Битрейт                                  : 1396 Кбит/сек
Ширина                                   : 672 пикселя
Высота                                   : 512 пикселей
Соотношение сторон                       : 4:3
Частота кадров                           : 25,000 кадров/сек
Цветовое пространство                    : YUV
Субдискретизация насыщенности            : 4:2:0
Битовая глубина                          : 8 бит
Тип развёртки                            : Прогрессивная
Метод сжатия                             : С потерями
Бит/(Пиксели*Кадры)                      : 0.162
Размер потока                            : 199 Мбайт (87%)
Библиотека кодирования                   : XviD 1.2.1 (UTC 2008-12-04)

Аудио
Идентификатор                            : 1
Формат                                   : AC-3
Формат/Информация                        : Audio Coding 3
Расширение режима                        : CM (complete main)
Параметр Endianness формата              : Big
Идентификатор кодека                     : 2000
Продолжительность                        : 19 м.
Вид битрейта                             : Постоянный
Битрейт                                  : 192 Кбит/сек
Каналы                                   : 2 канала
Расположение каналов                     : Front: L R
Частота                                  : 48,0 КГц
Частота кадров                           : 31,250 кадров/сек (1536 spf)
Метод сжатия                             : С потерями
Задержка видео                           : 8 мс.
Размер потока                            : 27,4 Мбайт (12%)
Выравнивание                             : Разделение по промежуткам
Продолжительность промежутка             : 40  мс. (1,00 видеокадр)
Время предзагрузки промежутка            : 500  мс.
Скриншоты:


Время раздачи: с 13:00 до 01:00
[NNM-Club.ru]_Ograblenie po...avi.torrent
 Торрент: Платиновая раздача  Зарегистрирован
 
Скачать


Примагнититься
 Зарегистрирован:   23 Дек 2018 14:24:05
 Размер:   228 MB  (
 Рейтинг:   4,8 (Голосов: 166)
 Поблагодарили:   572
 Проверка:   Оформление проверено модератором 23 Дек 2018 14:58:53
Как cкачать  ·  Как раздать  ·  Правильно оформить  ·  Поднять ратио!  
Framm ®
Стаж: 9 лет 8 мес.
Сообщений: 2596
Ratio: 16,11
Раздал: 2,813 TB
Поблагодарили: 33674
100%
Оставьте коммент-то
moon_sea
Стаж: 9 лет 1 мес.
Сообщений: 10
Ratio: 37,729
100%
Откуда: Сочи
russia.gif
Спасибо, хороший мульт =)
Framm ®
Стаж: 9 лет 8 мес.
Сообщений: 2596
Ratio: 16,11
Раздал: 2,813 TB
Поблагодарили: 33674
100%
moon_sea писал(а):
Спасибо, хороший мульт
Пожалуйста
Алексеич1964
Стаж: 8 лет 10 мес.
Сообщений: 18
Ratio: 7,867
41.54%
russia.gif
СУПЕР!!! СПАСИБО!!! :респект: :респект: :респект:
jiexa26rus
Стаж: 9 лет 10 мес.
Сообщений: 59
Ratio: 10,665
100%
russia.gif
Сиды, ау!
Framm ®
Стаж: 9 лет 8 мес.
Сообщений: 2596
Ratio: 16,11
Раздал: 2,813 TB
Поблагодарили: 33674
100%
Здесь мы
Squaw
Стаж: 8 лет 6 мес.
Сообщений: 6
Ratio: 11,217
100%
russia.gif
Спасибо. Давно искала.

_________________
русский человек скорее научится передавать файлы силой мысли, или через электрочайник, чем будет за это платить...
assapra
Стаж: 8 лет 4 мес.
Сообщений: 14
Ratio: 0,447
0%
russia.gif
Благодарствуйте
kisel25
Стаж: 10 лет
Сообщений: 11
Ratio: 1,495
100%
ukraine.gif
сразу союз вспомнил счастливое детство короткие штанишки побитые коленки эх хорошо жилось :D
Framm ®
Стаж: 9 лет 8 мес.
Сообщений: 2596
Ratio: 16,11
Раздал: 2,813 TB
Поблагодарили: 33674
100%
ну так
chizhikov
Стаж: 7 лет 9 мес.
Сообщений: 2
Ratio: 6,573
22.5%
Это ж из детства. Потрясающий мульт.
Framm ®
Стаж: 9 лет 8 мес.
Сообщений: 2596
Ratio: 16,11
Раздал: 2,813 TB
Поблагодарили: 33674
100%
chizhikov, солидарен на все 100
m1n3r
Стаж: 9 лет 9 мес.
Сообщений: 15
Ratio: 50,313
Раздал: 4,219 TB
100%
Откуда: такие вопросы?
ussr.gif
Мне кажется, (ИМХО), это хорошо, когда вспомнился мульт из детства, кстати неплохой, и ты его смотришь с ребёнком через десять минут.
vystavka
Стаж: 12 лет 3 мес.
Сообщений: 84
Ratio: 3,133
100%
ukraine.gif
Спасибо за мультики!
Показать сообщения:   
Начать новую тему   Ответить на тему    Торрент-трекер NNM-Club -> Мультфильмы -> Отечественные Мультфильмы (HD*Rip/LQ, DVDRip, SATRip, VHSRip) Часовой пояс: GMT + 3
Страницы:  1, 2  След.
Страница 1 из 2