Классический форум-трекер
canvas not supported
Нас вместе: 4 094 686

Приключения таксиста / Adventures of a Taxi Driver (1976) DVDRip


 
 
RSS
Начать новую тему   Ответить на тему    Торрент-трекер NNM-Club -> Артхаус -> Грайндхаус
Автор Сообщение
Diman272 ®
Стаж: 10 лет 3 мес.
Сообщений: 14
Ratio: 3,892
Поблагодарили: 613
16.09%
ukraine.gif
Приключения таксиста / Adventures of a Taxi Driver (1976) DVDRip
Жанр: Комедия, Эротика

Описание:
Молодой человек, выдавая себя за таксиста, ищет сексуальных приключений и проворачивает рискованные дела с похитителями драгоценностей. Фильм рассчитан на самую непритязательную аудиторию.

Режиссер: Стэнли А. Лонг
Актеры: Бэрри Эванс, Джуди Гисон, Эдриэнн Поста, Диана Дорс, Лиз Фрайзер, Джейн Хейден, Йен Лавендер, Стивен Льюис, Роберт Линдсэй, Генри МакГи



Продолжительность: 01:26:33
Перевод: Одноголосый закадровый

Видеокодек: Xvid
Битрейт видео: ~1870 kb/s
Размер кадра: 704x368
Качество видео: DVDRip
Аудио #1 (Андрей Гаврилов): AC-3; 48 kHz; 2/0 (L,R) ch; 192.00 kb/s
Аудио #2 (Александр Дольский): AC-3; 48 kHz; 2/0 (L,R) ch; 192.00 kb/s
Код: выделить все
Общее
Полное имя                               : C:\UT\Adventures of a Taxi Driver.avi
Формат                                   : AVI
Формат/Информация                        : Audio Video Interleave
Размер файла                             : 1,37 Гбайт
Продолжительность                        : 1 ч. 26 м.
Общий поток                              : 2269 Кбит/сек
Программа кодирования                    : VirtualDubMod 1.5.10.1 Рус от Stvens Inc.™ www.stvens.amillo.net (build 2439/release)
Библиотека кодирования                   : VirtualDubMod build 2439/release

Видео
Идентификатор                            : 0
Формат                                   : MPEG-4 Visual
Профиль формата                          : Advanced Simple@L5
Настройки формата                        : BVOP1
Параметр BVOP формата                    : 1
Параметр QPel формата                    : Нет
Параметр GMC формата                     : Без точки перехода
Параметр матрицы формата                 : Default (H.263)
Режим смешивания                         : Сжатый битовый поток
Идентификатор кодека                     : XVID
Идентификатор кодека/Подсказка           : XviD
Продолжительность                        : 1 ч. 26 м.
Битрейт                                  : 1871 Кбит/сек
Ширина                                   : 704 пикселя
Высота                                   : 368 пикселей
Соотношение сторон                       : 1,913
Частота кадров                           : 25,000 кадров/сек
Цветовое пространство                    : YUV
Субдискретизация насыщенности            : 4:2:0
Битовая глубина                          : 8 бит
Тип развёртки                            : Прогрессивная
Метод сжатия                             : С потерями
Бит/(Пиксели*Кадры)                      : 0.289
Размер потока                            : 1,13 Гбайт (82%)
Библиотека кодирования                   : XviD 1.1.0 (UTC 2005-11-22)

Аудио #1
Идентификатор                            : 1
Формат                                   : AC-3
Формат/Информация                        : Audio Coding 3
Коммерческое название                    : Dolby Digital
Идентификатор кодека                     : 2000
Продолжительность                        : 1 ч. 26 м.
Вид битрейта                             : Постоянный
Битрейт                                  : 192 Кбит/сек
Каналы                                   : 2 канала
ChannelLayout                            : L R
Частота                                  : 48,0 КГц
Частота кадров                           : 31,250 кадров/сек (1536 SPF)
Битовая глубина                          : 16 бит
Метод сжатия                             : С потерями
Размер потока                            : 118 Мбайт (8%)
Выравнивание                             : Разделение по промежуткам
Продолжительность промежутка             : 40  мс. (1,00 видеокадр)
Время предзагрузки промежутка            : 500  мс.
ServiceKind/String                       : Complete Main

Аудио #2
Идентификатор                            : 2
Формат                                   : AC-3
Формат/Информация                        : Audio Coding 3
Коммерческое название                    : Dolby Digital
Идентификатор кодека                     : 2000
Продолжительность                        : 1 ч. 26 м.
Вид битрейта                             : Постоянный
Битрейт                                  : 192 Кбит/сек
Каналы                                   : 2 канала
ChannelLayout                            : L R
Частота                                  : 48,0 КГц
Частота кадров                           : 31,250 кадров/сек (1536 SPF)
Битовая глубина                          : 16 бит
Метод сжатия                             : С потерями
Размер потока                            : 118 Мбайт (8%)
Выравнивание                             : Разделение по промежуткам
Продолжительность промежутка             : 40  мс. (1,00 видеокадр)
Время предзагрузки промежутка            : 500  мс.
ServiceKind/String                       : Complete Main
Скриншоты:


Время раздачи: С 5:00 до 23:00
[NNM-Club.ru]_Adventures of a Taxi Driver.avi.torrent
 Торрент: Платиновая раздача  Зарегистрирован
 
Скачать


Примагнититься
 Зарегистрирован:   02 Дек 2010 19:12:27
 Размер:   1,37 GB  (
 Рейтинг:   4,2 (Голосов: 34)
 Поблагодарили:   180
 Проверка:   Оформление проверено модератором 02 Дек 2010 23:57:04
Как cкачать  ·  Как раздать  ·  Правильно оформить  ·  Поднять ратио!  
Показать сообщения:   
Начать новую тему   Ответить на тему    Торрент-трекер NNM-Club -> Артхаус -> Грайндхаус Часовой пояс: GMT + 3
Страница 1 из 1