Классический форум-трекер
canvas not supported
Нас вместе: 4 079 489

Профессор в Законе (2006) DVDRip


Страницы:  1, 2  След. 
 
RSS
Начать новую тему   Ответить на тему    Торрент-трекер NNM-Club -> Отечественное кино -> Отечественные Фильмы (HD*Rip/LQ, DVDRip, SATRip, VHSRip)
Автор Сообщение
Don Mumia ®
V.I.P. - МаФиоЗи
Стаж: 12 лет 6 мес.
Сообщений: 1410
Ratio: 157,244
Поблагодарили: 36094
100%
israel.gif
Профессор в Законе (2006) DVDRip
Жанр: *Комедия*
Страна: Россия ("Стар Медиа")
Режиссер: Алексей Лисовец
В ролях: Александр Лыков, Олеся Жураковская, Андрей Федорцов, Семен Стругачев.

Описание:
Одинокий профессор филологии, пенсионер Андрей Павлович, типичный рафинированный интеллигент, приводит к себе гости случайную попутчицу Катю. С этого момента его жизнь кардинально меняется. Катя оказывается стареющей путаной, вслед за ней в дом профессора нескончаемой вереницей тянутся странные люди из воровского мира. Скромный пенсионер превращается в члена криминального сообщества и хозяина двух "ночных бабочек" – Марго и Белоснежки. Далее сюжет развивается по законам черной комедии: новые случайные жертвы, возня с покойниками, ремонт в доме. На фоне криминальных событий меняется сам пенсионер.


Продолжительность: 01:55:30
Видеокодек: XviD
Битрейт видео: 1592 Kb/s, 25 fps
Размер кадра: 720x416, (1.73:1)
Качество видео: DVDRip
Аудиокодек: AC3
Битрейт аудио: 384 Kb/s, 2Ch
Перевод: Оригинальный
Время раздачи: 24/7
Код: выделить все
Общее
Полное имя                               :Profesor_v_zakone.avi
Формат                                   : AVI
Формат/Информация                        : Audio Video Interleave
Размер файла                             : 1,60 Гбайт
Продолжительность                        : 1 ч. 55 м.
Общий поток                              : 1986 Кбит/сек
Программа кодирования                    : VirtualDubMod 1.5.10.1 (build 2439/release)

Видео
Идентификатор                            : 0
Формат                                   : MPEG-4 Visual
Профиль формата                          : Advanced Simple@L5
Параметр BVOP формата                    : 1
Параметр QPel формата                    : Нет
Параметр GMC формата                     : Без точки перехода
Параметр матрицы формата                 : Выборочная
Идентификатор кодека                     : XVID
Идентификатор кодека/Подсказка           : XviD
Продолжительность                        : 1 ч. 55 м.
Битрейт                                  : 1592 Кбит/сек
Ширина                                   : 720 пикселей
Высота                                   : 416 пикселей
Соотношение сторон                       : 1,731
Частота кадров                           : 25,000 кадров/сек
Цветовое пространство                    : YUV
Субдискретизация насыщенности            : 4:2:0
Битовая глубина                          : 8 бит
Тип развёртки                            : Прогрессивная
Метод сжатия                             : С потерями
Бит/(Пиксели*Кадры)                      : 0.213
Размер потока                            : 1,28 Гбайт (80%)
Библиотека кодирования                   : XviD 1.2.0.dev47 (UTC 2006-11-01)

Аудио
Идентификатор                            : 1
Формат                                   : AC-3
Формат/Информация                        : Audio Coding 3
Параметр Endianness формата              : Big
Идентификатор кодека                     : 2000
Продолжительность                        : 1 ч. 55 м.
Вид битрейта                             : Постоянный
Битрейт                                  : 384 Кбит/сек
Каналы                                   : 2 канала
Расположение каналов                     : Front: L R
Частота                                  : 48,0 КГц
Частота кадров                           : 31,250 кадров/сек (1536 spf)
Битовая глубина                          : 16 бит
Метод сжатия                             : С потерями
Размер потока                            : 317 Мбайт (19%)
Выравнивание                             : Разделение по промежуткам
Продолжительность промежутка             : 40  мс. (1,00 видеокадр)
Время предзагрузки промежутка            : 500  мс.
ServiceKind/String                       : Complete Main
[NNM-Club.name]_Profesor_v_zakone.avi.torrent
 Торрент: Платиновая раздача  Зарегистрирован
 
Скачать


Примагнититься
 Зарегистрирован:   13 Июл 2017 18:03:51
 Размер:   1,6 GB  (
 Рейтинг:   4,6 (Голосов: 91)
 Поблагодарили:   431
 Проверка:   Оформление проверено модератором 13 Июл 2017 18:05:42
Как cкачать  ·  Как раздать  ·  Правильно оформить  ·  Поднять ратио!  
Don Mumia ®
V.I.P. - МаФиоЗи
Стаж: 12 лет 6 мес.
Сообщений: 1410
Ratio: 157,244
Поблагодарили: 36094
100%
israel.gif
Всем - Приятного просмотра. :подмигивание:

Респект :крутой: всем, кто нажал - Спасибо -
Grekk15
Стаж: 12 лет 6 мес.
Сообщений: 84
Ratio: 6,763
100%
Откуда: г. Москва
russia.gif
Спасибо!!! Уже качаю :супер!:

_________________
Не водите машину быстрее, чем летает ваш ангел-хранитель
Don Mumia ®
V.I.P. - МаФиоЗи
Стаж: 12 лет 6 мес.
Сообщений: 1410
Ratio: 157,244
Поблагодарили: 36094
100%
israel.gif
Grekk15

Пожалуйста :подмигивание:
Rany
DJ Настроения
Модератор
 
Стаж: 12 лет 3 мес.
Сообщений: 6292
Ratio: 3,763
Раздал: 3,36 TB
Поблагодарили: 61
100%
Откуда: из-за моря
nnm-club.gif
Спасибо, говорят довольно хороший юмор в этой комедии.
Don Mumia ®
V.I.P. - МаФиоЗи
Стаж: 12 лет 6 мес.
Сообщений: 1410
Ratio: 157,244
Поблагодарили: 36094
100%
israel.gif
DeDreams

Пожалуйста :подмигивание:
RomanBor
Гость
СПС Биг
Don Mumia ®
V.I.P. - МаФиоЗи
Стаж: 12 лет 6 мес.
Сообщений: 1410
Ratio: 157,244
Поблагодарили: 36094
100%
israel.gif
RomanBor

Пожалуйста :подмигивание:
Quaero
Гость
mumia
Спасибо!
Saffi
Стаж: 11 лет 9 мес.
Сообщений: 18
Ratio: 1,175
9.42%
ukraine.gif
интересно интересно :)
Podlodka
Стаж: 12 лет 9 мес.
Сообщений: 393
Ratio: 4,066
Поблагодарили: 100
100%
Откуда: Всё там же
трудно обозначить одним словом. Но смотреть можно. Шутки юмора вполне нормальны. общее впечатление скорее положительное, чем отрицательное.
Venom_diamond
Стаж: 11 лет 10 мес.
Сообщений: 3
Ratio: 17,746
12.82%
ussr.gif
сеньк'ю вери мяч)
StanP72
Стаж: 12 лет 7 мес.
Сообщений: 15
Ratio: 2,268
100%
Сенька бери мяч!!!! :выпивают:
Гость
Просидируйте плииз, я Отцу хочу подарить этот фильм на Днюху!!!
Podlodka
Стаж: 12 лет 9 мес.
Сообщений: 393
Ratio: 4,066
Поблагодарили: 100
100%
Откуда: Всё там же
стёр, еле досмотрел
Показать сообщения:   
Начать новую тему   Ответить на тему    Торрент-трекер NNM-Club -> Отечественное кино -> Отечественные Фильмы (HD*Rip/LQ, DVDRip, SATRip, VHSRip) Часовой пояс: GMT + 3
Страницы:  1, 2  След.
Страница 1 из 2