Классический форум-трекер
canvas not supported
Нас вместе: 4 079 571

Крестный отец из Гонконга / Чудеса / Miracles / Ji ji (1989) DVDRip


 
 
RSS
Начать новую тему   Ответить на тему    Торрент-трекер NNM-Club -> Зарубежное кино -> Азиатское кино (HD*Rip/LQ, DVDRip, SATRip, VHSRip)
Автор Сообщение
ordy ®
Стаж: 10 лет
Сообщений: 611
Ratio: 12,04
Раздал: 6,279 TB
Поблагодарили: 23273
100%
Откуда: Estonia
estonia.gif
Крестный отец из Гонконга / Чудеса / Miracles / Ji ji (1989) DVDRip
«'Overwhelmingly wonderful', 'Nothing short of miraculous...a must see' - The Hollywood Reporter»
Год выпуска: 1989
Производство: Гонконг / Golden Harvest Company, Golden Way Films Ltd.
Жанр: Боевик, Драма, Комедия, Криминал

Описание фильма:
В поисках лучшей жизни и без гроша в кармане Чарли приезжает в Гонконг. Свои последние центы он отдает бедной торговке за цветок розы, который должен принести ему удачу. И «счастливый» случай не заставил себя ждать. Чарли становится невольным участником перестрелки двух мафиозных кланов и выносит из-под огня главного босса одной из гангстерских группировок.
Умирая, главарь мафии назначает Чарли своим наследником и Большим Братом своего клана. В роли «крестного отца» доброй половины криминального Гонконга Чарли приходится проявлять чудеса ловкости и изобретательности...

Режиссер: Джеки Чан
Актеры: Джеки Чан, Анита Муи, Ах Леи Гуа, Чун Хсианг Ко, Ма У, Билл Тун, Кенни Би, Энтони Карпио, Энтони Чан, Чинг-Ван Чан

Продолжительность: 02:01:40
Качество видео: DVDRip
Перевод: Многоголосый закадровый, профессиональный (ВГТРК + ТНТ)
Релиз от: MC GROM



Дата мировой премьеры: 15 июня 1989
Дата выхода DVD релиза: 28 октября 2008, «Мьюзик-Трейд»

Видео: MPEG-4 XviD, 720x304 (2.35:1), 25.000 fps, ~1332 Kb/s (0.243 bit/pixel)
Аудио#1: AC-3, 48.0 KHz, 2.0 ch, 192 Kb/s, CBR | Russian (MVO) - ВГТРК
Аудио#2: AC-3, 48.0 KHz, 2.0 ch, 192 Kb/s, CBR | Russian (MVO) - ТНТ
Код: выделить все
Общее
Полное имя                               : Крестный отец из Гонконга.1989.RUS.DVDRip.Xvid.(MC GROM-Release).avi
Формат                                   : AVI
Формат/Информация                        : Audio Video Interleave
Размер файла                             : 1,47 Гбайт
Продолжительность                        : 2 ч. 1 м.
Общий поток                              : 1730 Кбит/сек
Программа кодирования                    : VirtualDubMod 1.5.10.3 | www.virtualdub-fr.org || (build 2550/release)
Библиотека кодирования                   : VirtualDubMod build 2550/release

Видео
Идентификатор                            : 0
Формат                                   : MPEG-4 Visual
Профиль формата                          : Advanced Simple@L5
Параметр BVOP формата                    : 1
Параметр QPel формата                    : Нет
Параметр GMC формата                     : Без точки перехода
Параметр матрицы формата                 : Default (MPEG)
Идентификатор кодека                     : XVID
Идентификатор кодека/Подсказка           : XviD
Продолжительность                        : 2 ч. 1 м.
Битрейт                                  : 1332 Кбит/сек
Ширина                                   : 720 пикселей
Высота                                   : 304 пикселя
Соотношение сторон                       : 2,35:1
Частота кадров                           : 25,000 кадров/сек
Цветовое пространство                    : YUV
Субдискретизация насыщенности            : 4:2:0
Битовая глубина                          : 8 бит
Тип развёртки                            : Прогрессивная
Метод сжатия                             : С потерями
Бит/(Пиксели*Кадры)                      : 0.243
Размер потока                            : 1,13 Гбайт (77%)
Библиотека кодирования                   : XviD 58

Аудио #1
Идентификатор                            : 1
Формат                                   : AC-3
Формат/Информация                        : Audio Coding 3
Расширение режима                        : CM (complete main)
Параметр Endianness формата              : Big
Идентификатор кодека                     : 2000
Продолжительность                        : 2 ч. 1 м.
Вид битрейта                             : Постоянный
Битрейт                                  : 192 Кбит/сек
Каналы                                   : 2 канала
Расположение каналов                     : Front: L R
Частота                                  : 48,0 КГц
Битовая глубина                          : 16 бит
Метод сжатия                             : С потерями
Размер потока                            : 167 Мбайт (11%)
Выравнивание                             : Разделение по промежуткам
Продолжительность промежутка             : 40  мс. (1,00 видеокадр)
Время предзагрузки промежутка            : 500  мс.

Аудио #2
Идентификатор                            : 2
Формат                                   : AC-3
Формат/Информация                        : Audio Coding 3
Расширение режима                        : CM (complete main)
Параметр Endianness формата              : Big
Идентификатор кодека                     : 2000
Продолжительность                        : 2 ч. 1 м.
Вид битрейта                             : Постоянный
Битрейт                                  : 192 Кбит/сек
Каналы                                   : 2 канала
Расположение каналов                     : Front: L R
Частота                                  : 48,0 КГц
Битовая глубина                          : 16 бит
Метод сжатия                             : С потерями
Размер потока                            : 167 Мбайт (11%)
Выравнивание                             : Разделение по промежуткам
Продолжительность промежутка             : 40  мс. (1,00 видеокадр)
Время предзагрузки промежутка            : 500  мс.
Скриншоты:


Реставрация релиза: Viсtоr
[NNM-Club.ru]_Krestnyiy otets iz Gonkonga.1989.RUS.DVDRip.Xvid.(MC GROM-Release).avi.torrent
 Торрент: Платиновая раздача  Зарегистрирован
 
Скачать


Примагнититься
 Зарегистрирован:   27 Янв 2011 19:24:47
 Размер:   1,47 GB  (
 Рейтинг:   4,6 (Голосов: 36)
 Поблагодарили:   120
 Проверка:   Оформление проверено модератором 08 Фев 2011 20:48:52
Как cкачать  ·  Как раздать  ·  Правильно оформить  ·  Поднять ратио!  
Показать сообщения:   
Начать новую тему   Ответить на тему    Торрент-трекер NNM-Club -> Зарубежное кино -> Азиатское кино (HD*Rip/LQ, DVDRip, SATRip, VHSRip) Часовой пояс: GMT + 3
Страница 1 из 1