Классический форум-трекер
canvas not supported
Нас вместе: 4 079 113

Поспешишь - людей насмешишь / Fools Rush In (1997) DVDRip


 
 
RSS
Начать новую тему   Ответить на тему    Торрент-трекер NNM-Club -> Архив торрентов -> Архив Видео
Автор Сообщение
Lomonova ®
Стаж: 12 лет 6 мес.
Сообщений: 51
Ratio: 0,763
Поблагодарили: 853
88.36%
spain.gif
Поспешишь, людей насмешишь / Fools Rush In (1997) DVDRip
Год выпуска: 1997
Жанр: Драма, Мелодрама, Комедия
Производство: США / Columbia Pictures Corporation

Описание фильма:
Познакомившись с очаровательной Изабель, Апекс Уитман и не подозревал, что ночь страсти не пройдет бесследно, а станет началом любви. И когда Изабель сообщает, что ждет от него ребенка, Алекс принимает решение — жениться на девушке.
Он не знает свою возлюбленную — но это не имеет для него большого значения, ведь он уверен, что любовь — это то чувство, которое приходит всего один раз в жизни.

Режиссер: Энди Теннант
Актеры: Мэттью Перри, Сальма Хайек, Джон Тенни, Карлос Гомес, Томас Милиан, Шиван Фэллон, Джон Беннет Перри, Стэнли ДеСантис, Сюзанн Снайдер, Энн Бетанкур

Продолжительность: 01:44:27
Качество видео: DVDRip
Перевод: Многоголосый закадровый



Дата мировой премьеры: 14 февраля 1997
Ограничения: 16+

Видеокодек: DivX 5
Битрейт видео: ~1637 Кбит/с
Размер кадра: 720 х 368
Аудио: МР3, 2 ch, 224 Кбит/с
Код:
General
Complete name                    : E:\Поспешишь-людей насмешишь.avi
Format                           : AVI
Format/Info                      : Audio Video Interleave
File size                        : 1.37 GiB
Duration                         : 1h 44mn
Overall bit rate                 : 1 871 Kbps
Writing application              : VirtualDubMod 1.5.10.1 (build 2366/release)
Writing library                  : VirtualDubMod build 2366/release

Video
ID                               : 0
Format                           : MPEG-4 Visual
Format settings, BVOP            : Yes
Format settings, QPel            : No
Format settings, GMC             : No warppoints
Format settings, Matrix          : Default (H.263)
Codec ID                         : DX50
Codec ID/Hint                    : DivX 5
Duration                         : 1h 44mn
Bit rate                         : 1 637 Kbps
Width                            : 720 pixels
Height                           : 368 pixels
Display aspect ratio             : 1.957
Frame rate                       : 25.000 fps
Color space                      : YUV
Chroma subsampling               : 4:2:0
Bit depth                        : 8 bits
Scan type                        : Progressive
Compression mode                 : Lossy
Bits/(Pixel*Frame)               : 0.247
Stream size                      : 1.19 GiB (88%)
Writing library                  : DivX 5.0.2 (UTC 2002-05-16)

Audio
ID                               : 1
Format                           : MPEG Audio
Format version                   : Version 1
Format profile                   : Layer 3
Mode                             : Joint stereo
Codec ID                         : 55
Codec ID/Hint                    : MP3
Duration                         : 1h 44mn
Bit rate mode                    : Constant
Bit rate                         : 224 Kbps
Channel(s)                       : 2 channels
Sampling rate                    : 44.1 KHz
Compression mode                 : Lossy
Stream size                      : 167 MiB (12%)
Alignment                        : Split accross interleaves
Interleave, duration             : 40 ms (1.00 video frame)
Interleave, preload duration     : 500 ms
Скриншоты:


Время раздачи: До 5 скачавших.
Pospeshish_Ludej_Nasmeshish_[nnm-club.ru].torrent
 Торрент: Платиновая раздача  Зарегистрирован
 
Скачать


 Зарегистрирован:   02 Авг 2007 19:31:41
 Размер:   1,37 GB  (
 Рейтинг:   4,7 (Голосов: 14)
 Поблагодарили:   51
 Проверка:   Оформление проверено модератором 03 Авг 2007 18:16:07
Как cкачать  ·  Как раздать  ·  Правильно оформить  ·  Поднять ратио!  

_________________
"Поспешишь - людей насмешишь" здесь: Поспешишь - людей насмешишь / Fools Rush In (1997) DVDRip
"Чарли и Лола" на испанском: Чарли и Лола / Juan y Tolola / Charlie and Lola (2005) DVDRip
Топик был перенесен из форума Зарубежные Фильмы (DVDRip, SATRip, VHSRip) в форум Архив видео

piranya2
funnysmoker
Стаж: 8 лет 7 мес.
Сообщений: 6
Ratio: 2,079
86.68%
Спасибо, хороший фильм
Показать сообщения:   
Начать новую тему   Ответить на тему    Торрент-трекер NNM-Club -> Архив торрентов -> Архив Видео Часовой пояс: GMT + 3
Страница 1 из 1