Классический форум-трекер
canvas not supported
Нас вместе: 4 079 101

Алая буква / The Scarlet Letter / Juhong geulshi (2004) BDRip


 
 
RSS
Начать новую тему   Ответить на тему    Торрент-трекер NNM-Club -> Зарубежное кино -> Азиатское кино (HD*Rip/LQ, DVDRip, SATRip, VHSRip)
Автор Сообщение
Angel-M ®
Стаж: 10 лет 5 мес.
Сообщений: 451
Ratio: 81,098
Поблагодарили: 5784
100%
Откуда: территория с населением
pirates.png
Алая буква / The Scarlet Letter / Juhong geulshi (2004) BDRip
Год выпуска: 2004
Производство: Корея Южная / LJ Film
Жанр: Триллер, Драма, Детектив

Описание фильма:
Ки Хун — криминальный следователь, капитан, умный, проницательный, обладающий хорошей интуицией. Он прибывает на место убийства. Убит мужчина, и в убийстве подозревают жену убитого, Гён Хи. По мере расследования Ки Хун пытается доказать, что в семье было не все так гладко, пытается спровоцировать, чтобы Гён Хи призналась, что у нее был любовник. Но Гён Хи в свою очередь дает понять, что и он, Ки Хун, не безгрешен. И она оказывается права. У него есть безропотная жена, Су Хён, и они ждут ребенка. Но отдушину он находит в объятиях страстной любовницы, Га Хи. Ки Хун чувствует за собой вину, разрываясь между этими двумя женщинами, которые к тому же в колледже были одноклассницами. Обеим говорит, что любит их. И как во всем этом разобраться? К тому же любовница сообщает, что она беременна...

Режиссер: Хиук Бюн
Актеры: Хан Сок Кю, Ли Юн Чу, Сон Хён А, Ом Чжи Вон, Чжин-гын Ким, Соль Джи Юн

Продолжительность: 01:58:32
Качество видео: BDRip
Перевод: Двуголосый закадровый, профессиональный



Дата мировой премьеры: 15 октября 2004

Видео: MPEG-4 XviD, 672x368 (1.85:1), 23.976 fps, ~1557 Kb/s (0.263 bit/pixel)
Аудио: AC-3, 48.0 KHz, 2.0 ch, 192 Kb/s, CBR | Russian
Код:
Общее
Полное имя                               : Juhong_geulshi.avi
Формат                                   : AVI
Формат/Информация                        : Audio Video Interleave
Размер файла                             : 1,46 Гбайт
Продолжительность                        : 1 ч. 58 м.
Общий поток                              : 1759 Кбит/сек
Название фильма                          : Juhong geulshi, 2004
Жанр                                     : Drama | Mystery | Thriller
Программа кодирования                    : VirtualDubMod 1.5.10.2 (build 2540/release)
Формат оригинала/Имя                     : Movie

Видео
Идентификатор                            : 0
Формат                                   : MPEG-4 Visual
Профиль формата                          : Advanced Simple@L5
Параметр BVOP формата                    : 2
Параметр QPel формата                    : Нет
Параметр GMC формата                     : Без точки перехода
Параметр матрицы формата                 : Выборочная
Режим смешивания                         : Сжатый битовый поток
Идентификатор кодека                     : XVID
Идентификатор кодека/Подсказка           : XviD
Продолжительность                        : 1 ч. 58 м.
Битрейт                                  : 1557 Кбит/сек
Ширина                                   : 672 пикселя
Высота                                   : 368 пикселей
Соотношение сторон                       : 1,85:1
Частота кадров                           : 23,976 кадра/сек
Цветовое пространство                    : YUV
Субдискретизация насыщенности            : 4:2:0
Битовая глубина                          : 8 бит
Тип развёртки                            : Прогрессивная
Метод сжатия                             : С потерями
Бит/(Пиксели*Кадры)                      : 0.263
Размер потока                            : 1,29 Гбайт (89%)
Библиотека кодирования                   : XviD 1.2.1 (UTC 2008-12-04)

Аудио
Идентификатор                            : 1
Формат                                   : AC-3
Формат/Информация                        : Audio Coding 3
Расширение режима                        : CM (complete main)
Параметр Endianness формата              : Big
Идентификатор кодека                     : 2000
Продолжительность                        : 1 ч. 58 м.
Вид битрейта                             : Постоянный
Битрейт                                  : 192 Кбит/сек
Каналы                                   : 2 канала
Расположение каналов                     : Front: L R
Частота                                  : 48,0 КГц
Битовая глубина                          : 16 бит
Метод сжатия                             : С потерями
Размер потока                            : 163 Мбайт (11%)
Выравнивание                             : Разделение по промежуткам
Продолжительность промежутка             : 42  мс. (1,00 видеокадр)
Время предзагрузки промежутка            : 500  мс.
Скриншоты:

Время раздачи: 24/7 - круглосуточно (по возможности)
Реставрация от: Viсtоr
[NNM-Club.ru]_Juhong_geulshi.avi.torrent
 Торрент: Платиновая раздача  Зарегистрирован
 
Скачать


Примагнититься
 Зарегистрирован:   06 Фев 2011 07:06:35
 Размер:   1,46 GB  (
 Рейтинг:   4,2 (Голосов: 13)
 Поблагодарили:   53
 Проверка:   Оформление проверено модератором 08 Фев 2011 17:41:36
Как cкачать  ·  Как раздать  ·  Правильно оформить  ·  Поднять ратио!  
Показать сообщения:   
Начать новую тему   Ответить на тему    Торрент-трекер NNM-Club -> Зарубежное кино -> Азиатское кино (HD*Rip/LQ, DVDRip, SATRip, VHSRip) Часовой пояс: GMT + 3
Страница 1 из 1