Классический форум-трекер
canvas not supported
Нас вместе: 4 078 030

Кукловод / Choneung ryeokja (Haunters) (2010) DVDRip


 
 
RSS
Начать новую тему   Ответить на тему    Торрент-трекер NNM-Club -> Зарубежное кино -> Азиатское кино (HD*Rip/LQ, DVDRip, SATRip, VHSRip)
Автор Сообщение
ra3wa ®
Модератор Видео
RG Releasers
Uploader 100+
 
Стаж: 9 лет 2 мес.
Сообщений: 11856
Ratio: 7572,761
Раздал: 353,7 TB
Поблагодарили: 2242906
100%
Откуда: Воронеж
russia.gif
Кукловод / Медиум / Psychic / Haunters / Cho-neung-ryeok-ja (2010) DVDRip
Производство: Корея Южная / ZIP Cinema
Жанр: Фантастика, Боевик, Триллер, Драма

Описание:
В фирму под названием «Утопия» приходит устраиваться на работу молодой человек, Им Кьюн-нам. Ему 33 года от роду. Босс, человек с не меньшими странностями, чем название его компании, при первом же знакомстве рассказывает ему о таинственных событиях, недавно происшедших в офисе. И предлагает оформить его на должность представителя фирмы. На что молодой человек, недавно в результате несчастного случая потерявший работу, скрепя сердце вынужден согласиться. Он даже не догадывался о том, с кем ему, по роду службы, предстоит столкнуться. И не в переносном, а в буквальном смысле...

Режиссер: Ким Мин Сук
Актеры: Кан Дон Вон, Чхве Док Мун, Чжон Ын-Чхэ, Ко Су, Ян Кён Мо, Да-кьёнг Юн

Продолжительность: 01:52:12
Качество видео: DVDRip
Перевод: Одноголосый закадровый, профессиональный



Дата мировой премьеры: 10 ноября 2010

Видеокодек: XviD
Битрейт видео: ~1543 Kb/s
Размер кадра: 704x296
Аудиокодек: AC3 2.0
Битрейт аудио: 192 Kb/s
Общее
Полное имя : Medium.avi
Формат : AVI
Формат/Информация : Audio Video Interleave
Размер файла : 1,37 Гбайт
Продолжительность : 1 ч. 52 м.
Общий поток : 1745 Кбит/сек
Программа кодирования : VirtualDubMod 1.5.10.2 (build 2540/release)
Библиотека кодирования : VirtualDub build 33769/release

Видео
Идентификатор : 0
Формат : MPEG-4 Visual
Профиль формата : Advanced Simple@L5
Параметр BVOP формата : 3
Параметр QPel формата : Нет
Параметр GMC формата : Без точки перехода
Параметр матрицы формата : Default (MPEG)
Идентификатор кодека : XVID
Идентификатор кодека/Подсказка : XviD
Продолжительность : 1 ч. 52 м.
Битрейт : 1543 Кбит/сек
Ширина : 704 пикселя
Высота : 296 пикселей
Соотношение сторон : 2,40:1
Частота кадров : 24,000 кадра/сек
Цветовое пространство : YUV
Субдискретизация насыщенности : 4:2:0
Битовая глубина : 8 бит
Тип развёртки : Прогрессивная
Метод сжатия : С потерями
Бит/(Пиксели*Кадры) : 0.309
Размер потока : 1,21 Гбайт (88%)
Библиотека кодирования : XviD 1.2.1 (UTC 2008-12-04)

Аудио
Идентификатор : 1
Формат : AC-3
Формат/Информация : Audio Coding 3
Расширение режима : CM (complete main)
Параметр Endianness формата : Big
Идентификатор кодека : 2000
Продолжительность : 1 ч. 52 м.
Вид битрейта : Постоянный
Битрейт : 192 Кбит/сек
Каналы : 2 канала
Расположение каналов : Front: L R
Частота : 48,0 КГц
Битовая глубина : 16 бит
Метод сжатия : С потерями
Размер потока : 154 Мбайт (11%)
Выравнивание : Разделение по промежуткам
Продолжительность промежутка : 42 мс. (1,00 видеокадр)
Время предзагрузки промежутка : 500 мс.
Скриншоты:


Время раздачи: 24/7 - круглосуточно (по возможности)
Реставрация от: Viсtоr
[NNM-Club.ru]_Medium.avi.torrent
 Торрент: Платиновая раздача  Зарегистрирован
 
Скачать


Примагнититься
 Зарегистрирован:   08 Фев 2011 14:17:57
 Размер:   1,37 GB  (
 Рейтинг:   4,7 (Голосов: 21)
 Поблагодарили:   101
 Проверка:   Оформление проверено модератором 10 Фев 2011 11:28:45
Как cкачать  ·  Как раздать  ·  Правильно оформить  ·  Поднять ратио!  
akim
Стаж: 12 лет 8 мес.
Сообщений: 17
Ratio: 4,07
0.18%
скрипя сердцем )))))
челбок
Стаж: 8 лет 7 мес.
Сообщений: 10
Ratio: 0,559
6.02%
russia.gif
ни чё так фильмец !!!!!! стоит посмотреть !!!1
shrek511
Стаж: 10 лет
Сообщений: 181
Ratio: 7,564
Поблагодарили: 2258
100%
russia.gif
Я бы даже сказал: неожиданно интересный.
inspector78
Стаж: 10 лет
Сообщений: 129
Ratio: 15,193
Поблагодарили: 1576
39.31%
russia.gif
Отличный фильм!
На кинопоиске он как "Кукловод"

_________________
-----
Смейся - и весь мир будет смеяться вместе с тобой, плачь - и ты будешь плакать в одиночестве.
MclarenMP
Стаж: 9 лет 7 мес.
Сообщений: 588
Ratio: 33,955
Поблагодарили: 3282
72.76%
russia.gif
спс
koleyrii
Стаж: 9 лет 10 мес.
Сообщений: 682
Ratio: 8,214
Поблагодарили: 167
100%
Откуда: Строгинский мост
russia.gif
Сюжетная тема действительно интересна - "КУКЛОВОД", но снятое Южной Кореей очень специфично, думаю немногие досмотрят до финала, в лучшем случае перемотают !!! :подмигивание: В корзину.
P.S. Не знаю почему но мне вспомнился наш "МЕЧЕНОСЕЦ" и сравнив, я понял что он просто ВЕЛИКОЛЕПНЫЙ ФИЛЬМ - захватывающе-понятный если так можно сказать !!! =)
Показать сообщения:   
Начать новую тему   Ответить на тему    Торрент-трекер NNM-Club -> Зарубежное кино -> Азиатское кино (HD*Rip/LQ, DVDRip, SATRip, VHSRip) Часовой пояс: GMT + 3
Страница 1 из 1