Классический форум-трекер
canvas not supported
Нас вместе: 4 079 053

Приключения Пифа. Сборник мультфильмов (2007) DVD5


 
 
RSS
Начать новую тему   Ответить на тему    Торрент-трекер NNM-Club -> Мультфильмы -> Отечественные Мультфильмы (HD, UHD, UHD-LQ, DVD, Сборники)
Автор Сообщение
denver7979 ®
Зам. Куратора Детского.
Модератор Видео.
RG Всё лучшее - детям!
 
Стаж: 8 лет 10 мес.
Сообщений: 7662
Ratio: 501,291
Раздал: 34,54 TB
Поблагодарили: 312062
100%
Откуда: Земля
ussr.gif
Приключения Пифа. Сборник мультфильмов (2007) DVD5
Год выпуска DVD: 2007
Жанр: Детский

Описание:
1. "Приключения Пифа", 1970 г., 35 мин. Реж. Дмитрий Бабиченко
Фильм снят на основе спектакля гос. театр кукол Латвийской ССР. История о приключениях щенка Пифа и кота Геркулеса...

2."Записки Пирата", 1989 г, 9 мин. Реж. Анатолий Солин, Инна Пшеничная
Умный пес Пират умеет писать, читать и даже вести дневник о своих приключениях...

3. "Умная собачка Соня": Вадим Меджибовский
фильм первый: сюжеты "Кто сделал лужу?", "Здравствуйте, спасибо и до свидания!", "Горчица" - 1991 г., 10 мин.
фильм второй: сюжеты "Пятно", "Что лучше" - 1993 г., 6 мин.
О забавной собачке Соне, которая, попадая в сложные ситуации, делала для себя поучительные выводы.

4. "Найда", 1984 г., 16 мин. Реж. Олег Чуркин
Об ответственности за "братьев меньших", о том, что нельзя бросать своих маленьких четвероногих друзей...

5. "Ростик и Кеша", 1979 г., 15 мин. Реж. Леонид Бердичевский
О дружбе мальчика и щенка...

6. "Плюх и Плих", 1984 г., 10 мин., реж. Натан Лернер
Мультфильм о двух мальчишках, которые спасли от смерти двух щенят и вырастили умных и верных четвероногих друзей.

Режиссер: Д.Бабиченко, А.Солин, В. Меджибовский и др.

Роли озвучивали: Виктор Проскурин, Юрий Пузырев, Рогволд Суховерко, Людмила Гнилова, Татьяна Божок, Светлана Степченко, Алексей Борзунов, Светлана Травкина, Григорий Толчинский, Н. Авдеева, Сергей Юрский, Агарь Власова, С. Федосов

Продолжительность: 01:42:00
Качество: DVD5
Формат: DVD Video
Видео кодек: MPEG2
Аудио кодек: AC3
Видео: PAL 4:3 (720x576) VBR
Аудио: Russian (Dolby AC3, 1 ch, 448Kbps)
Видео
Идентификатор : 224 (0xE0)
Формат : MPEG Video
Версия формата : Version 2
Профиль формата : Main@Main
Параметр BVOP формата : Да
Параметр матрицы формата : Выборочная
Параметр GOP формата : M=3, N=15
Продолжительность : 28 м.
Битрейт : 4500 Кбит/сек
Ширина : 720 пикселей
Высота : 576 пикселей
Соотношение сторон : 4:3
Частота кадров : 25,000 кадров/сек
Стандарт вещания : PAL
Цветовое пространство : YUV
Субдискретизация насыщенности : 4:2:0
Битовая глубина : 8 бит
Тип развёртки : Чересстрочная
Порядок развёртки : Нижнее поле первое
Метод сжатия : С потерями
Бит/(Пиксели*Кадры) : 0.434
Размер потока : 913 Мбайт (89%)

Аудио
Идентификатор : 189 (0xBD)-128 (0x80)
Формат : AC-3
Формат/Информация : Audio Coding 3
Расширение режима : CM (complete main)
Параметр Endianness формата : Big
Режим смешивания : DVD-Video
Продолжительность : 28 м.
Вид битрейта : Постоянный
Битрейт : 448 Кбит/сек
Каналы : 1 канал
Расположение каналов : Front: C
Частота : 48,0 КГц
Битовая глубина : 16 бит
Метод сжатия : С потерями
Размер потока : 90,8 Мбайт (9%)

Меню
Скриншоты:




Торрнет-файл обновлен по техническим причинам 18.11.13 приношу извинения.

Время раздачи: с 11 до 1
[NNM-Club.me]_Pif.torrent
 Торрент: Платиновая раздача  Зарегистрирован
 
Скачать


 Зарегистрирован:   18 Ноя 2013 17:45:23
 Размер:   4,26 GB  (
 Рейтинг:   4,7 (Голосов: 43)
 Поблагодарили:   142
 Проверка:   Оформление проверено модератором 18 Ноя 2013 17:46:37
Как cкачать  ·  Как раздать  ·  Правильно оформить  ·  Поднять ратио!  

_________________
§ Основной FAQ & Все ПравилаНабор в RG NNM-Club Всё для детей, пап и мам
* Все вопросы в ☛ ЛС по вашим релизам ☣
обязательно со ссылками на темы, о которых идёт речь ☺
Olbasis
Стаж: 9 лет 7 мес.
Сообщений: 11
Ratio: 14,074
100%
Два сида! АУ! Помогите скачать!
Показать сообщения:   
Начать новую тему   Ответить на тему    Торрент-трекер NNM-Club -> Мультфильмы -> Отечественные Мультфильмы (HD, UHD, UHD-LQ, DVD, Сборники) Часовой пояс: GMT + 3
Страница 1 из 1