Классический форум-трекер
canvas not supported
Нас вместе: 4 083 501
Платим за отзывы

Преступления и проступки / Crimes and Misdemeanors (1989) DVDRip


 
 
RSS
Начать новую тему   Ответить на тему    Торрент-трекер NNM-Club -> Классика кино и Старые фильмы до 90-х -> Старые Зарубежные Фильмы (HD*Rip/LQ, DVDRip, SATRip, VHSRip)
Автор Сообщение
atreu ®
Стаж: 10 лет
Сообщений: 59
Ratio: 13,461
Раздал: 12,85 TB
Поблагодарили: 2650
100%
Откуда: Москва
russia.gif
Преступления и проступки / Crimes and Misdemeanors (1989) DVDRip
Русское название: Преступления и проступки
Оригинальное название: Crimes and Misdemeanors
Год выпуска: 1989
Страна: США
Жанр: Драма, комедия
Описание фильма:
Преуспевающий доктор Розенталь должен быть доволен жизнью. У него есть большой и красивый дом, любящая жена, дети и много друзей. Но наслаждаться размеренным существованием ему мешает бывшая любовница Долорес, с которой он провел несколько чудесных месяцев. Она, почему — то решила что он собирался оставить жену и жениться на ней.
Когда же ей стало ясно, что это не произойдет, она поступает так, как возможно поступила бы любая другая женщина — письма и звонки, грозящие крахом семейному счастью и душевному благополучию. Понимая, что должны быть приняты эффективные меры, доктор обращается за помощью к своему брату — мафиози, который знает, как решить проблему.
Режиссер: Вуди Аллен
Актеры: Мартин Ландау, Вуди Аллен, Анджелика Хьюстон, Миа Фэрроу, Клер Блум, Алан Алда, Кэролайн Аарон, Дженни Николс, Джоанна Глисон, Сэм Уотерстон
Продолжительность: 01:39:43
Перевод: Многоголосый закадровый

Дата мировой премьеры: 13 октября 1989
Британская академия, 1991 год
Номинации (6):
* Лучший фильм
* Лучшая мужская роль второго плана (Алан Алда)
* Лучшая женская роль второго плана (Анджелика Хьюстон)
* Лучший режиссер (Вуди Аллен)
* Лучший оригинальный сценарий
* Лучший монтаж

Оскар, 1990 год
Номинации (3):
* Лучшая мужская роль второго плана (Мартин Ландау)
* Лучший режиссер (Вуди Аллен)
* Лучший сценарий

Золотой глобус, 1990 год
Номинации (1):
Лучший фильм (драма)

Качество видео: DVDRip
Формат видео: AVI
Видео: 720x384, XviD, ~1573 Кбит/сек, cоотношение сторон: 1,875, частота кадров: 25,000 кадр/сек
Аудио #1: AC3, частота: 48,0 КГц, 2 канала (Front: L R), ~192 Кбит/сек (Русский многоголосый закадровый)
Аудио #2: AC3, частота: 48,0 КГц, 2 канала (Front: L R), ~192 Кбит/сек (Русский многоголосый закадровый)
Аудио #3: AC3, частота: 48,0 КГц, 2 канала (Front: L R), ~448 Кбит/сек (Английский)
Общее
Полное имя : Преступления и проступки - Crimes and Misdemeanors 1989 DVDRip.avi
Формат : AVI
Формат/Информация : Audio Video Interleave
Размер файла : 1,69 Гбайт
Продолжительность : 1 ч. 39 м.
Общий поток : 2424 Кбит/сек
Программа кодирования : VirtualDubModRus 1.5.10.2 (build 2542/release)
Библиотека кодирования : VirtualDubMod build 2542/release

Видео
Идентификатор : 0
Формат : MPEG-4 Visual
Профиль формата : Advanced Simple@L5
Параметр BVOP формата : 1
Параметр QPel формата : Нет
Параметр GMC формата : Без точки перехода
Параметр матрицы формата : Выборочная
Идентификатор кодека : XVID
Идентификатор кодека/Подсказка : XviD
Продолжительность : 1 ч. 39 м.
Битрейт : 1573 Кбит/сек
Ширина : 720 пикс.
Высота : 384 пикс.
Соотношение сторон : 1,875
Частота кадров : 25,000 кадр/сек
Цветовое пространство : YUV
Подвыборка цветности : 4:2:0
Битовая глубина : 8 бит
Тип развёртки : Прогрессивная
Метод сжатия : С потерями
Бит/(Пиксели*Кадры) : 0.228
Размер потока : 1,10 Гбайт (65%)
Библиотека кодирования : XviD 1.2.1 (UTC 2008-12-04)

Аудио #1
Идентификатор : 1
Формат : AC-3
Формат/Информация : Audio Coding 3
Расширение режима : CM (complete main)
Идентификатор кодека : 2000
Продолжительность : 1 ч. 39 м.
Вид битрейта : Постоянный
Битрейт : 192 Кбит/сек
Канал(ы) : 2 канала(ов)
Расположение каналов : Front: L R
Частота : 48,0 КГц
Битовая глубина : 16 бит
Метод сжатия : С потерями
Размер потока : 137 Мбайт (8%)
Выравнивание : Разделение по промежуткам
Продолжительность промежутка : 40 мс. (1,00 видеокадр)
Время предзагрузки промежутка : 500 ms
Язык : Russian

Аудио #2
Идентификатор : 2
Формат : AC-3
Формат/Информация : Audio Coding 3
Расширение режима : CM (complete main)
Идентификатор кодека : 2000
Продолжительность : 1 ч. 39 м.
Вид битрейта : Постоянный
Битрейт : 192 Кбит/сек
Канал(ы) : 2 канала(ов)
Расположение каналов : Front: L R
Частота : 48,0 КГц
Битовая глубина : 16 бит
Метод сжатия : С потерями
Размер потока : 137 Мбайт (8%)
Выравнивание : Разделение по промежуткам
Продолжительность промежутка : 40 мс. (1,00 видеокадр)
Время предзагрузки промежутка : 500 ms
Язык : Russian

Аудио #3
Идентификатор : 3
Формат : AC-3
Формат/Информация : Audio Coding 3
Расширение режима : CM (complete main)
Идентификатор кодека : 2000
Продолжительность : 1 ч. 39 м.
Вид битрейта : Постоянный
Битрейт : 448 Кбит/сек
Канал(ы) : 2 канала(ов)
Расположение каналов : Front: L R
Частота : 48,0 КГц
Битовая глубина : 16 бит
Метод сжатия : С потерями
Размер потока : 320 Мбайт (18%)
Выравнивание : Разделение по промежуткам
Продолжительность промежутка : 40 мс. (1,00 видеокадр)
Время предзагрузки промежутка : 500 ms

Сэмпл: Ссылка
Скриншоты:


Время раздачи: c 8:30 до 23:00
[NNM-Club.ru]_Prestupleniya i prostupki - Crimes and Misdemeanors 1989 DVDRip.avi.torrent
 Торрент: Платиновая раздача  Зарегистрирован
 
Скачать


Примагнититься
 Зарегистрирован:   10 Фев 2011 01:25:29
 Размер:   1,69 GB  (
 Рейтинг:   4,7 (Голосов: 15)
 Поблагодарили:   61
 Проверка:   Оформление проверено модератором 10 Фев 2011 09:25:16
Как cкачать  ·  Как раздать  ·  Правильно оформить  ·  Поднять ратио!  
Loading...
adria2112
Стаж: 8 лет 7 мес.
Сообщений: 200
Ratio: 10,165
100%
ukraine.gif
Прекрасный фильм! Вуди Аллен на высоте - и в исполнении и сценарии. Приятно было посмотреть на Алана Алду. Тонкий юмор фильма как нельзя лучше гармонирует с такой лпасной линией в фильме.
Топик был перенесен из форума Авторское кино в форум Старые Зарубежные Фильмы (HD*Rip/LQ, DVDRip, SATRip, VHSRip)



Исправил релиз - напиши ЛС MAG3131, дав ссылку на релиз.
Если нет ответа 24 часа - нажми на кнопку "Обратить внимание модераторов".
Показать сообщения:   
Начать новую тему   Ответить на тему    Торрент-трекер NNM-Club -> Классика кино и Старые фильмы до 90-х -> Старые Зарубежные Фильмы (HD*Rip/LQ, DVDRip, SATRip, VHSRip) Часовой пояс: GMT + 3
Страница 1 из 1