Классический форум-трекер
canvas not supported
Нас вместе: 4 077 929

Признания / Confessions / Kokuhaku (2010) DVDRip


 
 
RSS
Начать новую тему   Ответить на тему    Торрент-трекер NNM-Club -> Зарубежное кино -> Азиатское кино (HD*Rip/LQ, DVDRip, SATRip, VHSRip)
Автор Сообщение
Angel-M ®
Стаж: 10 лет 4 мес.
Сообщений: 451
Ratio: 80,943
Поблагодарили: 5768
100%
Откуда: территория с населением
pirates.png
Признания / Confessions / Kokuhaku (2010) DVDRip
Год выпуска: 2010
Производство: Япония / DesperaDo, Hakuhodo DY Media Partners, Licri
Жанр: Триллер, Драма, Детектив

Описание фильма:
После трагической гибели дочери учительница Юко Моригути пришла в класс, чтобы провести свой последний, самый важный урок. После него её работа в этой школе была закончена. Но это было лишь начало запущенного ею изощренного плана мести. Ведь её класс - это далеко не кучка тринадцатилетних ангелков с типичными для пубертата проблемами, а сборище жестоких и хладнокровных подростков, чьи злодеяния в силу малолетства зачастую остаются безнаказанными.
Между тем среди деток скрываются и жестокие убийцы-психопаты...

Режиссер: Тецуя Накашима
Актеры: Такако Мацу, Ёсино Кимура, Масаки Окада, Юкито Нисии, Каору Фудзивара, Аи Хашимото, Хирофуми Арай, Макия Ямагути, Икуё Курода, Мана Ашида

Продолжительность: 01:46:34
Качество видео: DVDRip
Перевод: Одноголосый закадровый, любительский (den904)



Дата мировой премьеры: 5 июня 2010

Видео: MPEG-4 XviD, 720x400 (16:9), 23.976 fps, ~1557 Kb/s (0.226 bit/pixel)
Аудио#1: МР3, 48.0 KHz, 2.0 ch, 192 Kb/s, CBR | Russian
Аудио#2: AC-3, 48.0 KHz, 5.1 ch, 384 Kb/s, CBR | Japanese
Код:
Общее
Полное имя                               : Priznaniya.avi
Формат                                   : AVI
Формат/Информация                        : Audio Video Interleave
Размер файла                             : 1,60 Гбайт
Продолжительность                        : 1 ч. 46 м.
Общий поток                              : 2147 Кбит/сек
Программа кодирования                    : VirtualDubMod 1.5.10.2 (build 2542/release)
Библиотека кодирования                   : VirtualDubMod build 2542/release

Видео
Идентификатор                            : 0
Формат                                   : MPEG-4 Visual
Профиль формата                          : Advanced Simple@L5
Параметр BVOP формата                    : 1
Параметр QPel формата                    : Нет
Параметр GMC формата                     : Без точки перехода
Параметр матрицы формата                 : Выборочная
Режим смешивания                         : Сжатый битовый поток
Идентификатор кодека                     : XVID
Идентификатор кодека/Подсказка           : XviD
Продолжительность                        : 1 ч. 46 м.
Битрейт                                  : 1557 Кбит/сек
Ширина                                   : 720 пикселей
Высота                                   : 400 пикселей
Соотношение сторон                       : 16:9
Частота кадров                           : 23,976 кадра/сек
Цветовое пространство                    : YUV
Субдискретизация насыщенности            : 4:2:0
Битовая глубина                          : 8 бит
Тип развёртки                            : Прогрессивная
Метод сжатия                             : С потерями
Бит/(Пиксели*Кадры)                      : 0.226
Размер потока                            : 1,16 Гбайт (73%)
Библиотека кодирования                   : XviD 1.2.1 (UTC 2008-12-04)

Аудио #1
Идентификатор                            : 1
Формат                                   : MPEG Audio
Версия формата                           : Version 1
Профиль формата                          : Layer 3
Режим                                    : Joint stereo
Расширение режима                        : MS Stereo
Идентификатор кодека                     : 55
Идентификатор кодека/Подсказка           : MP3
Продолжительность                        : 1 ч. 46 м.
Вид битрейта                             : Постоянный
Битрейт                                  : 192 Кбит/сек
Каналы                                   : 2 канала
Частота                                  : 48,0 КГц
Метод сжатия                             : С потерями
Размер потока                            : 146 Мбайт (9%)
Выравнивание                             : Соединение по промежуткам
Продолжительность промежутка             : 42  мс. (1,00 видеокадр)
Время предзагрузки промежутка            : 504  мс.
Библиотека кодирования                   : LAME3.96

Аудио #2
Идентификатор                            : 2
Формат                                   : AC-3
Формат/Информация                        : Audio Coding 3
Расширение режима                        : CM (complete main)
Параметр Endianness формата              : Big
Идентификатор кодека                     : 2000
Продолжительность                        : 1 ч. 46 м.
Вид битрейта                             : Постоянный
Битрейт                                  : 384 Кбит/сек
Каналы                                   : 6 каналов
Расположение каналов                     : Front: L C R, Side: L R, LFE
Частота                                  : 48,0 КГц
Битовая глубина                          : 16 бит
Метод сжатия                             : С потерями
Размер потока                            : 292 Мбайт (18%)
Выравнивание                             : Разделение по промежуткам
Продолжительность промежутка             : 42  мс. (1,00 видеокадр)
Время предзагрузки промежутка            : 500  мс.
Скриншоты:


Реставрация от: Viсtоr
[NNM-Club.ru]_Priznaniya.avi.torrent
 Торрент: Платиновая раздача  Зарегистрирован
 
Скачать


Примагнититься
 Зарегистрирован:   22 Фев 2011 12:35:02
 Размер:   1,6 GB  (
 Рейтинг:   4,4 (Голосов: 29)
 Поблагодарили:   79
 Проверка:   Оформление проверено модератором 22 Фев 2011 15:43:29
Как cкачать  ·  Как раздать  ·  Правильно оформить  ·  Поднять ратио!  
pullmono
Стаж: 10 лет 1 мес.
Сообщений: 52
Ratio: 18,762
100%
ussr.gif
фильм хороший, но тяжелый... не для всех...
Показать сообщения:   
Начать новую тему   Ответить на тему    Торрент-трекер NNM-Club -> Зарубежное кино -> Азиатское кино (HD*Rip/LQ, DVDRip, SATRip, VHSRip) Часовой пояс: GMT + 3
Страница 1 из 1