Классический форум-трекер
canvas not supported
Нас вместе: 4 079 140

Ганц / Gantz (2010) HDRip [H.264/720р-LQ] [EN/RU Sub]


 
 
RSS
Начать новую тему   Ответить на тему    Торрент-трекер NNM-Club -> Зарубежное кино -> Азиатское кино (HD*Rip/LQ, DVDRip, SATRip, VHSRip)
Автор Сообщение
SweM ®
Стаж: 11 лет 11 мес.
Сообщений: 342
Ratio: 7,303
Поблагодарили: 854
100%
russia.gif
Ганц / Gantz (2010) HDRip [H.264/720р-LQ] [EN/RU Sub]
Год выпуска: 2010
Производство: Япония / Chubu-nippon Broadcasting Company (CBC), Fukuoka Broadcasting System (FBS), Gantz Film Partners
Жанр: Фантастика, Боевик

Описание фильма:
Где-то в Токио есть квартира, в которой никто не живёт. Туда невозможно попасть простому человеку и уж тем более выбраться, если ты оказался внутри. Там нет мебели — лишь огромный чёрный шар, дающий указания убивать пришельцев. Куроно Кей и его старый друг Масару Като оказались там не случайно — поезд метро разорвал их тела на куски. Так почему они всё ещё живы и что это за странная комната, из которой практически невозможно выбраться обратно... "Эй, Ниши, почему бы тебе не рассказать всем, что здесь происходит?! И что это за инопланетные чудовища?! Дай мне пушку, чувак, я вышибу им мозги!"

Режиссер: Синсуке Сато
Актеры: Казунари Ниномия, Мацуяма Кэнити, Юрико Ёситака, Каната Хонго, Нацуна Ватанабэ, Томорово Тагути, Такаюки Ямада, Кенсуке Тисака, Юко Генкаку, Мукау Накамура

Продолжительность: 02:10:48
Качество видео: HDRip
Формат: MP4

Перевод: Субтитры
Язык субтитров: Русский
Вид субтитров: Отдельным файлом (*.srt)



Дата мировой премьеры: 29 ноября 2010

Видео: MPEG-4 AVC/H.264, 1280x720 (16:9), 23.976 fps, ~2195 Kb/s (0.099 bit/pixel)
Аудио: AAC, 48,0 KHz, 5.1 ch, ~443 Kb/s, VBR | English (DUB)
Код:
Общее
Полное имя                               : Gantz.2011.English.DUBBED.720p.HDRip.x264.Feel-Free.mp4
Формат                                   : MPEG-4
Профиль формата                          : Base Media
Идентификатор кодека                     : isom
Размер файла                             : 2,41 Гбайт
Продолжительность                        : 2 ч. 10 м.
Режим общего битрейта                    : Переменный
Общий поток                              : 2642 Кбит/сек
Дата кодирования                         : UTC 2011-02-15 04:13:41
Дата пометки                             : UTC 2011-02-15 04:13:41

Видео
Идентификатор                            : 1
Формат                                   : AVC
Формат/Информация                        : Advanced Video Codec
Профиль формата                          : High@L4.1
Параметр CABAC формата                   : Да
Параметр ReFrames формата                : 3 кадра
Идентификатор кодека                     : avc1
Идентификатор кодека/Информация          : Advanced Video Coding
Продолжительность                        : 2 ч. 10 м.
Битрейт                                  : 2195 Кбит/сек
Максимальный битрейт                     : 14,0 Мбит/сек
Ширина                                   : 1280 пикселей
Высота                                   : 720 пикселей
Соотношение сторон                       : 16:9
Режим частоты кадров                     : Постоянный
Частота кадров                           : 23,976 кадра/сек
Цветовое пространство                    : YUV
Субдискретизация насыщенности            : 4:2:0
Битовая глубина                          : 8 бит
Тип развёртки                            : Прогрессивная
Бит/(Пиксели*Кадры)                      : 0.099
Размер потока                            : 2,01 Гбайт (83%)
Дата кодирования                         : UTC 2011-02-15 04:13:41
Дата пометки                             : UTC 2011-02-15 04:16:44

Аудио
Идентификатор                            : 2
Формат                                   : AAC
Формат/Информация                        : Advanced Audio Codec
Профиль формата                          : LC
Идентификатор кодека                     : 40
Продолжительность                        : 2 ч. 10 м.
Вид битрейта                             : Переменный
Битрейт                                  : 443 Кбит/сек
Максимальный битрейт                     : 599 Кбит/сек
Каналы                                   : 2 канала
Original Channel count                   : 6 каналов
Расположение каналов                     : Front: L C R, Side: L R, LFE
Частота                                  : 48,0 КГц
Метод сжатия                             : С потерями
Размер потока                            : 415 Мбайт (17%)
Дата кодирования                         : UTC 2011-02-15 04:16:10
Дата пометки                             : UTC 2011-02-15 04:16:44
Скриншоты: Реставрация от: Viсtоr
[NNM-Club.ru]_Gantz.2011.English.DUBBED.720p.HDRip.x264.Feel-Free.torrent
 Торрент: Платиновая раздача  Зарегистрирован
 
Скачать


Примагнититься
 Зарегистрирован:   01 Мар 2011 19:36:07
 Размер:   2,41 GB  (
 Рейтинг:   4,6 (Голосов: 18)
 Поблагодарили:   41
 Проверка:   Оформление проверено модератором 20 Мар 2011 12:45:48
Как cкачать  ·  Как раздать  ·  Правильно оформить  ·  Поднять ратио!  
Загрузка...
Hotise
Стаж: 10 лет 5 мес.
Сообщений: 56
Ratio: 129,637
Раздал: 52,79 TB
Поблагодарили: 1238
78.18%
Откуда: Москва
russia.gif
Этот фильм с концовкой как в аниме сделали? или свою придумали?
floxton
Стаж: 12 лет 3 мес.
Сообщений: 183
Ratio: 7,354
100%
Откуда: Ростов-на-Дону
russia.gif
В аниме как таковой концовки нет, да и манге история очень сильно продолжилась.
PadloPicasso
Стаж: 10 лет 1 мес.
Сообщений: 48
Ratio: 4,344
Поблагодарили: 82
60.28%
спасибо, посмотрим :)
GAMGAM
Стаж: 13 лет
Сообщений: 514
Ratio: 2,593
Поблагодарили: 107
29.48%
И не нашлось никого чтобы перевести ?
defaultik
Стаж: 8 лет 8 мес.
Сообщений: 38
Ratio: 2,776
13.5%
та да, блин опять заменил что перевода нету когда уже скачал =))
Ptich
Стаж: 13 лет
Сообщений: 22
Ratio: 4,472
100%
russia.gif
Классный фильм.
Понравился даже больше чем аниме-сериал ....

И кстати английская дорожка требует весьма средненького владения языком. Так что не пугайтесь :умничает:

_________________
Бороться, искать, найти и перепрятать!
oops33rus
Стаж: 9 лет 1 мес.
Сообщений: 3
Ratio: 13,903
33.33%
На известный трекер есть с одноголосным от замеза )))
SweM ®
Стаж: 11 лет 11 мес.
Сообщений: 342
Ratio: 7,303
Поблагодарили: 854
100%
russia.gif
[font:ebaa965ffc="Comic Sans MS"]Добавлены субтитры к фильму!!
Если нужно, можно добавить раздачу фильма с любительски переводом!
GIU
Uploader 100+
Стаж: 9 лет 4 мес.
Сообщений: 3477
Ratio: 4669,905
Поблагодарили: 769122
100%
ussr.gif
Перевод: Одноголосый закадровый, любительский [zamez]

_________________
Существует 2 бесконечности: Вселенная и Глупость. Впрочем, я не уверен насчет Вселенной.
©А.Эйнштейн
Totorchik
Стаж: 12 лет
Сообщений: 168
Ratio: 44,311
Поблагодарили: 388
100%
russia.gif
там вроде 2й фильм будут снимать, типа продолжение с финалом истории

_________________
Три вещи, на которые человек может смотреть вечно - это бегущая вода, пламя костра и повышение скорости закачки в торрент-клиенте...
Sakura_msk
Стаж: 11 лет 8 мес.
Сообщений: 1529
Ratio: 28,74
Поблагодарили: 5621
100%
не то что будут, он в апреле выходит уже)
Причем обложка в этом релизе уже от второго фильма.
Показать сообщения:   
Начать новую тему   Ответить на тему    Торрент-трекер NNM-Club -> Зарубежное кино -> Азиатское кино (HD*Rip/LQ, DVDRip, SATRip, VHSRip) Часовой пояс: GMT + 3
Страница 1 из 1