Классический форум-трекер
canvas not supported
Нас вместе: 4 102 502

В.В. Шахиджанян | Гимнастика души [2008] DVDRip [H264]


 
 
RSS
Начать новую тему   Ответить на тему    Торрент-трекер NNM-Club -> Обучающие видеоматериалы -> Популярная психология
Автор Сообщение
buch46 ®
Стаж: 12 лет 1 мес.
Сообщений: 134
Ratio: 7,468
Раздал: 4,911 TB
Поблагодарили: 8311
100%
libya.gif
В.В. Шахиджанян | Гимнастика души [2008] DVDRip [H264]
Автор: В.В. Шахиджанян
Название: Гимнастика души
Год выпуска: 2008
Жанр: Видеокурс
Качество видео: DVDRip [H264] Исходник DVD9
Продолжительность: 03:26:20
Видеокодек: MPEG-4 AVC/H.264
Битрейт видео: ~301 Кбит/сек
Размер кадра: 720x536 25fps
Аудиокодек: MP3
Битрейт аудио: 128 Кбит/сек

Описание:
Смысл жизни - в радости.
Видеокурс "Гимнастика души" научит вас получать радость от жизни.
Автор курса Владимир Шахиджанян, известный психолог, журналист и преподаватель факультета журналистики МГУ им. М.В. Ломоносова, ведёт разговор о том, как найти своё место в жизни, как общаться с другими людьми, как поверить в своё "я".

Диск содержит 55 разделов: как найти и сохранить любовь, как укрепить дружбу, как строить карьеру, как преодолевать трудности, как сохранить оптимизм...
Нет отчаянных ситуаций, есть отчаявшиеся люди.
"Любую мечту можно превратить в попутный ветер, если правильно расставить паруса".
Формат : AVI
Формат/Информация : Audio Video Interleave
Размер файла : 648 Мбайт
Продолжительность : 3 ч. 26 м.
Общий поток : 439 Кбит/сек

Видео
Идентификатор : 0
Формат : AVC
Формат/Информация : Advanced Video Codec
Профиль формата : High@L3.0
Параметр CABAC формата : Да
Параметр ReFrames формата : 4 кадры
Параметры GOP формата : N=1
Идентификатор кодека : H264
Продолжительность : 3 ч. 26 м.
Битрейт : 301 Кбит/сек
Ширина : 720 пикс.
Высота : 536 пикс.
Соотношение сторон : 4:3
Частота кадров : 25,000 кадр/сек
Цветовое пространство : YUV
Подвыборка цветности : 4:2:0
Битовая глубина : 8 бит
Тип развёртки : Прогрессивная
Бит/(Пиксели*Кадры) : 0.031
Размер потока : 444 Мбайт (69%)
Библиотека кодирования : x264 core 112 r1867bm 22bfd31
Настройки программы : cabac=1 / ref=3 / deblock=1:0:0 / analyse=0x3:0x113 / me=hex / subme=7 / psy=1 / psy_rd=1.00:0.00 / mixed_ref=1 / me_range=16 / chroma_me=1 / trellis=1 / 8x8dct=1 / cqm=0 / deadzone=21,11 / fast_pskip=1 / chroma_qp_offset=-2 / threads=6 / sliced_threads=0 / nr=0 / decimate=1 / interlaced=0 / constrained_intra=0 / bframes=3 / b_pyramid=2 / b_adapt=1 / b_bias=0 / direct=1 / weightb=1 / open_gop=0 / weightp=2 / keyint=250 / keyint_min=25 / scenecut=40 / intra_refresh=0 / rc_lookahead=40 / rc=crf / mbtree=1 / crf=26.6 / qcomp=0.60 / qpmin=0 / qpmax=51 / qpstep=4 / ip_ratio=1.40 / aq=1:1.00

Аудио
Идентификатор : 1
Формат : MPEG Audio
Версия формата : Version 1
Профиль формата : Layer 3
Идентификатор кодека : 55
Идентификатор кодека/Подсказка : MP3
Продолжительность : 3 ч. 26 м.
Вид битрейта : Постоянный
Битрейт : 128 Кбит/сек
Канал(ы) : 2 канала(ов)
Частота : 44,1 КГц
Метод сжатия : С потерями
Размер потока : 189 Мбайт (29%)
Выравнивание : Разделение по промежуткам
Продолжительность промежутка : 40 мс. (1,00 видеокадр)
Время предзагрузки промежутка : 1902 ms
Библиотека кодирования : LAMELAME_MAJOR_VERSI
Скриншоты:
/image/118833] /image/118835] /image/118837] /image/118838] /image/118839]

Время раздачи: С 11:00 до 22:30
[NNM-Club.ru]_Shahijanyn-Gimnastika_dushi.avi.torrent
 Торрент: Платиновая раздача  Зарегистрирован
 
Скачать


Примагнититься
 Зарегистрирован:   12 Мар 2011 19:00:48
 Размер:   648 MB  (
 Рейтинг:   4,8 (Голосов: 51)
 Поблагодарили:   207
 Проверка:   Оформление проверено модератором 12 Мар 2011 19:10:30
Как cкачать  ·  Как раздать  ·  Правильно оформить  ·  Поднять ратио!  
zversusz
Стаж: 10 лет 1 мес.
Сообщений: 5
Ratio: 0,746
40%
russia.gif
В чём смысл жизни ?)))бред имхо :лол:
foxsandy
Стаж: 10 лет 4 мес.
Сообщений: 12
Ratio: 5,305
Поблагодарили: 2
4.2%
Иной раз полезно послушать умных людей, не кто же не заставляет все принимать за чистую монету :)
Korjga
Стаж: 9 лет 1 мес.
Сообщений: 67
Ratio: 1,283
100%
russia.gif
Люди, человеки! Пожалуйста, дайте скачать! :поклоняется:
Показать сообщения:   
Начать новую тему   Ответить на тему    Торрент-трекер NNM-Club -> Обучающие видеоматериалы -> Популярная психология Часовой пояс: GMT + 3
Страница 1 из 1