Классический форум-трекер
canvas not supported
Нас вместе: 4 083 691
Платим за отзывы

Уроки тетушки Совы. Чудеса Света (2008) DVD5


 
 
RSS
Начать новую тему   Ответить на тему    Торрент-трекер NNM-Club -> Видео -> Развивающее Видео для детей
Автор Сообщение
Игорь: ) ®
Коллекционер Союзмультфильма
Стаж: 10 лет 3 мес.
Сообщений: 492
Ratio: 68,838
Раздал: 4,92 TB
Поблагодарили: 55969
100%
ukraine.gif
Уроки тетушки Совы. Чудеса Света (2008) DVD5
Русское название: Уроки тетушки Совы. Чудеса Света
Год выпуска: 2008
Жанр: Детский, Видеоуроки, Развивающий
Режиссер: Анатолий Валевский

Описание фильма:
В каждой из 13-ти серий тетушка Сова и ее помощник домовенок Непослуха расскажут ребятам о великих чудесах света, а проказники-коты покажут свои веселые мультфильмы о том, как возникли пирамиды и статуя Зевса, колосс Родосский, Колизей и Эйфелева башня, статуи острова Пасхи и Великая китайская стена и т. д.
Рекомендовано детям от 2 до 7 лет.
Общее
Полное имя : J:\www.nnm-club.me\Уроки Тетушки Совы\Чудеса света\VIDEO_TS\VIDEO_TS.BUP
Формат : DVD Video
Профиль формата : Menu
Размер файла : 12,0 Кбайт

Видео
Идентификатор : 224 (0xE0)
Формат : MPEG Video
Версия формата : Version 2
Вид битрейта : Переменный
Ширина : 720 пикс.
Высота : 576 пикс.
Соотношение сторон : 16:9
Частота кадров : 25,000 кадр/сек
Стандарт вещания : PAL
Метод сжатия : С потерями

Аудио
Формат : AC-3
Формат/Информация : Audio Coding 3
Канал(ы) : 2 канала(ов)
Частота : 48,0 КГц
Метод сжатия : С потерями

Текст
Формат : RLE
Формат/Информация : Run-length encoding
Битовая глубина : 2 бит

Общее
Полное имя : J:\www.nnm-club.me\Уроки Тетушки Совы\Чудеса света\VIDEO_TS\VIDEO_TS.IFO
Формат : DVD Video
Профиль формата : Menu
Размер файла : 12,0 Кбайт

Видео
Идентификатор : 224 (0xE0)
Формат : MPEG Video
Версия формата : Version 2
Вид битрейта : Переменный
Ширина : 720 пикс.
Высота : 576 пикс.
Соотношение сторон : 16:9
Частота кадров : 25,000 кадр/сек
Стандарт вещания : PAL
Метод сжатия : С потерями

Аудио
Формат : AC-3
Формат/Информация : Audio Coding 3
Канал(ы) : 2 канала(ов)
Частота : 48,0 КГц
Метод сжатия : С потерями

Текст
Формат : RLE
Формат/Информация : Run-length encoding
Битовая глубина : 2 бит

Общее
Полное имя : J:\www.nnm-club.me\Уроки Тетушки Совы\Чудеса света\VIDEO_TS\VIDEO_TS.VOB
Формат : MPEG-PS
Размер файла : 7,19 Мбайт
Продолжительность : 7 с. 960 мс.
Общий поток : 7577 Кбит/сек

Видео
Идентификатор : 224 (0xE0)
Формат : MPEG Video
Версия формата : Version 2
Профиль формата : Main@Main
Параметр BVOP формата : Да
Параметр матрицы формата : По умолчанию
Параметры GOP формата : M=3, N=12
Продолжительность : 7 с. 960 мс.
Вид битрейта : Переменный
Битрейт : 7234 Кбит/сек
Номинальный битрейт : 8000 Кбит/сек
Ширина : 720 пикс.
Высота : 576 пикс.
Соотношение сторон : 16:9
Частота кадров : 25,000 кадр/сек
Стандарт вещания : PAL
Цветовое пространство : YUV
Подвыборка цветности : 4:2:0
Битовая глубина : 8 бит
Тип развёртки : Чересстрочная
Порядок развёртки : Верхнее поле первое
Метод сжатия : С потерями
Бит/(Пиксели*Кадры) : 0.698
Размер потока : 6,86 Мбайт (95%)

Аудио
Идентификатор : 189 (0xBD)-128 (0x80)
Формат : AC-3
Формат/Информация : Audio Coding 3
Расширение режима : CM (complete main)
Режим смешивания : DVD-Video
Продолжительность : 1 с. 599 мс.
Вид битрейта : Постоянный
Битрейт : 192 Кбит/сек
Канал(ы) : 2 канала(ов)
Расположение каналов : Front: L R
Частота : 48,0 КГц
Битовая глубина : 16 бит
Метод сжатия : С потерями
Размер потока : 37,5 Кбайт (1%)

Меню

Общее
Полное имя : J:\www.nnm-club.me\Уроки Тетушки Совы\Чудеса света\VIDEO_TS\VTS_01_0.BUP
Формат : DVD Video
Профиль формата : Program
Размер файла : 74,0 Кбайт
Продолжительность : 1 ч. 8 м.
Общий поток : 148 бит/сек

Видео
Идентификатор : 224 (0xE0)
Формат : MPEG Video
Версия формата : Version 2
Продолжительность : 1 ч. 8 м.
Вид битрейта : Переменный
Ширина : 720 пикс.
Высота : 576 пикс.
Соотношение сторон : 16:9
Частота кадров : 25,000 кадр/сек
Стандарт вещания : PAL
Метод сжатия : С потерями

Аудио
Идентификатор : 128 (0x80)
Формат : AC-3
Формат/Информация : Audio Coding 3
Продолжительность : 1 ч. 8 м.
Канал(ы) : 2 канала(ов)
Частота : 48,0 КГц
Метод сжатия : С потерями
Язык : Russian

Меню #1
Продолжительность : 1 с. 600 мс.
00:00:00.000 : Chapter 1
List (Audio) : 0

Меню #2
Продолжительность : 1 ч. 8 м.
00:00:00.000 : Chapter 1
00:05:14.200 : Chapter 2
00:10:29.040 : Chapter 3
00:15:43.920 : Chapter 4
00:20:58.120 : Chapter 5
00:26:12.560 : Chapter 6
00:31:26.760 : Chapter 7
00:36:40.920 : Chapter 8
00:41:55.120 : Chapter 9
00:47:09.320 : Chapter 10
00:52:23.440 : Chapter 11
00:57:37.600 : Chapter 12
01:02:51.800 : Chapter 13
01:08:05.960 : Chapter 14
List (Audio) : 0

Меню #3
Продолжительность : 1 с. 600 мс.
00:00:00.000 : Chapter 1
List (Audio) : 0

Общее
Полное имя : J:\www.nnm-club.me\Уроки Тетушки Совы\Чудеса света\VIDEO_TS\VTS_01_0.IFO
Формат : DVD Video
Профиль формата : Program
Размер файла : 74,0 Кбайт
Продолжительность : 1 ч. 8 м.
Общий поток : 148 бит/сек

Видео
Идентификатор : 224 (0xE0)
Формат : MPEG Video
Версия формата : Version 2
Продолжительность : 1 ч. 8 м.
Вид битрейта : Переменный
Ширина : 720 пикс.
Высота : 576 пикс.
Соотношение сторон : 16:9
Частота кадров : 25,000 кадр/сек
Стандарт вещания : PAL
Метод сжатия : С потерями

Аудио
Идентификатор : 128 (0x80)
Формат : AC-3
Формат/Информация : Audio Coding 3
Продолжительность : 1 ч. 8 м.
Канал(ы) : 2 канала(ов)
Частота : 48,0 КГц
Метод сжатия : С потерями
Язык : Russian

Меню #1
Продолжительность : 1 с. 600 мс.
00:00:00.000 : Chapter 1
List (Audio) : 0

Меню #2
Продолжительность : 1 ч. 8 м.
00:00:00.000 : Chapter 1
00:05:14.200 : Chapter 2
00:10:29.040 : Chapter 3
00:15:43.920 : Chapter 4
00:20:58.120 : Chapter 5
00:26:12.560 : Chapter 6
00:31:26.760 : Chapter 7
00:36:40.920 : Chapter 8
00:41:55.120 : Chapter 9
00:47:09.320 : Chapter 10
00:52:23.440 : Chapter 11
00:57:37.600 : Chapter 12
01:02:51.800 : Chapter 13
01:08:05.960 : Chapter 14
List (Audio) : 0

Меню #3
Продолжительность : 1 с. 600 мс.
00:00:00.000 : Chapter 1
List (Audio) : 0

Общее
Полное имя : J:\www.nnm-club.me\Уроки Тетушки Совы\Чудеса света\VIDEO_TS\VTS_01_0.VOB
Формат : MPEG-PS
Размер файла : 1,34 Мбайт
Продолжительность : 22 с.
Общий поток : 497 Кбит/сек

Видео
Идентификатор : 224 (0xE0)
Формат : MPEG Video
Версия формата : Version 2
Профиль формата : Main@Main
Параметр BVOP формата : Нет
Параметр матрицы формата : По умолчанию
Параметры GOP формата : N=1
Продолжительность : 40 мс.
Вид битрейта : Переменный
Битрейт : 295 Кбит/сек
Номинальный битрейт : 9200 Кбит/сек
Ширина : 720 пикс.
Высота : 576 пикс.
Соотношение сторон : 16:9
Частота кадров : 25,000 кадр/сек
Стандарт вещания : PAL
Цветовое пространство : YUV
Подвыборка цветности : 4:2:0
Битовая глубина : 8 бит
Тип развёртки : Чересстрочная
Порядок развёртки : Верхнее поле первое
Метод сжатия : С потерями
Бит/(Пиксели*Кадры) : 0.028
Размер потока : 1,44 Кбайт (0%)

Аудио
Идентификатор : 189 (0xBD)-128 (0x80)
Формат : AC-3
Формат/Информация : Audio Coding 3
Расширение режима : CM (complete main)
Режим смешивания : DVD-Video
Продолжительность : 22 с.
Вид битрейта : Постоянный
Битрейт : 192 Кбит/сек
Канал(ы) : 2 канала(ов)
Расположение каналов : Front: L R
Частота : 48,0 КГц
Битовая глубина : 16 бит
Метод сжатия : С потерями
Размер потока : 532 Кбайт (39%)

Текст #1
Идентификатор : 189 (0xBD)-32 (0x20)
Формат : RLE
Формат/Информация : Run-length encoding
Режим смешивания : DVD-Video

Текст #2
Идентификатор : 189 (0xBD)-33 (0x21)
Формат : RLE
Формат/Информация : Run-length encoding
Режим смешивания : DVD-Video

Меню

Общее
Полное имя : J:\www.nnm-club.me\Уроки Тетушки Совы\Чудеса света\VIDEO_TS\VTS_01_1.VOB
Формат : MPEG-PS
Размер файла : 1024 Мбайт
Продолжительность : 1 м. 51 с.
Общий поток : 77,3 Мбит/сек

Видео
Идентификатор : 224 (0xE0)
Формат : MPEG Video
Версия формата : Version 2
Профиль формата : Main@Main
Параметр BVOP формата : Да
Параметр матрицы формата : По умолчанию
Продолжительность : 1 м. 51 с.
Вид битрейта : Постоянный
Битрейт : 75,6 Мбит/сек
Номинальный битрейт : 6000 Кбит/сек
Ширина : 720 пикс.
Высота : 576 пикс.
Соотношение сторон : 16:9
Частота кадров : 25,000 кадр/сек
Стандарт вещания : PAL
Цветовое пространство : YUV
Подвыборка цветности : 4:2:0
Битовая глубина : 8 бит
Тип развёртки : Чересстрочная
Порядок развёртки : Нижнее поле первое
Метод сжатия : С потерями
Бит/(Пиксели*Кадры) : 7.289
Размер потока : 1001 Мбайт (98%)

Аудио
Идентификатор : 189 (0xBD)-128 (0x80)
Формат : AC-3
Формат/Информация : Audio Coding 3
Расширение режима : CM (complete main)
Режим смешивания : DVD-Video
Продолжительность : 1 м. 50 с.
Вид битрейта : Постоянный
Битрейт : 192 Кбит/сек
Канал(ы) : 2 канала(ов)
Расположение каналов : Front: L R
Частота : 48,0 КГц
Битовая глубина : 16 бит
Метод сжатия : С потерями
Размер потока : 2,54 Мбайт (0%)

Меню

Общее
Полное имя : J:\www.nnm-club.me\Уроки Тетушки Совы\Чудеса света\VIDEO_TS\VTS_01_2.VOB
Формат : MPEG-PS
Размер файла : 1024 Мбайт
Продолжительность : 1 м. 46 с.
Общий поток : 80,4 Мбит/сек

Видео
Идентификатор : 224 (0xE0)
Формат : MPEG Video
Версия формата : Version 2
Профиль формата : Main@Main
Параметр BVOP формата : Да
Параметр матрицы формата : По умолчанию
Параметры GOP формата : M=3, N=12
Продолжительность : 1 м. 46 с.
Вид битрейта : Переменный
Битрейт : 78,6 Мбит/сек
Номинальный битрейт : 8000 Кбит/сек
Ширина : 720 пикс.
Высота : 576 пикс.
Соотношение сторон : 16:9
Частота кадров : 25,000 кадр/сек
Стандарт вещания : PAL
Цветовое пространство : YUV
Подвыборка цветности : 4:2:0
Битовая глубина : 8 бит
Тип развёртки : Чересстрочная
Порядок развёртки : Верхнее поле первое
Метод сжатия : С потерями
Бит/(Пиксели*Кадры) : 7.582
Размер потока : 1000 Мбайт (98%)

Аудио
Идентификатор : 189 (0xBD)-128 (0x80)
Формат : AC-3
Формат/Информация : Audio Coding 3
Расширение режима : CM (complete main)
Режим смешивания : DVD-Video
Продолжительность : 1 м. 46 с.
Вид битрейта : Постоянный
Битрейт : 192 Кбит/сек
Канал(ы) : 2 канала(ов)
Расположение каналов : Front: L R
Частота : 48,0 КГц
Битовая глубина : 16 бит
Метод сжатия : С потерями
Задержка видео : -248 мс.
Размер потока : 2,45 Мбайт (0%)

Меню

Общее
Полное имя : J:\www.nnm-club.me\Уроки Тетушки Совы\Чудеса света\VIDEO_TS\VTS_01_3.VOB
Формат : MPEG-PS
Размер файла : 1024 Мбайт
Общий поток : 1999 бит/сек

Видео
Идентификатор : 224 (0xE0)
Формат : MPEG Video
Версия формата : Version 2
Профиль формата : Main@Main
Параметр BVOP формата : Да
Параметр матрицы формата : По умолчанию
Параметры GOP формата : M=3, N=12
Вид битрейта : Переменный
Номинальный битрейт : 8000 Кбит/сек
Ширина : 720 пикс.
Высота : 576 пикс.
Соотношение сторон : 16:9
Частота кадров : 25,000 кадр/сек
Стандарт вещания : PAL
Цветовое пространство : YUV
Подвыборка цветности : 4:2:0
Битовая глубина : 8 бит
Тип развёртки : Чересстрочная
Порядок развёртки : Верхнее поле первое
Метод сжатия : С потерями
Бит/(Пиксели*Кадры) : 0.772

Аудио
Идентификатор : 189 (0xBD)-128 (0x80)
Формат : AC-3
Формат/Информация : Audio Coding 3
Расширение режима : CM (complete main)
Режим смешивания : DVD-Video
Вид битрейта : Постоянный
Битрейт : 192 Кбит/сек
Канал(ы) : 2 канала(ов)
Расположение каналов : Front: L R
Частота : 48,0 КГц
Битовая глубина : 16 бит
Метод сжатия : С потерями
Задержка видео : -208 мс.
Размер потока : 96,0 Гбайт

Меню

Общее
Полное имя : J:\www.nnm-club.me\Уроки Тетушки Совы\Чудеса света\VIDEO_TS\VTS_01_4.VOB
Формат : MPEG-PS
Размер файла : 910 Мбайт
Продолжительность : 9 м. 54 с.
Общий поток : 12,8 Мбит/сек

Видео
Идентификатор : 224 (0xE0)
Формат : MPEG Video
Версия формата : Version 2
Профиль формата : Main@Main
Параметр BVOP формата : Да
Параметр матрицы формата : По умолчанию
Параметры GOP формата : M=3, N=12
Продолжительность : 9 м. 54 с.
Вид битрейта : Переменный
Битрейт : 12,4 Мбит/сек
Номинальный битрейт : 8000 Кбит/сек
Ширина : 720 пикс.
Высота : 576 пикс.
Соотношение сторон : 16:9
Частота кадров : 25,000 кадр/сек
Стандарт вещания : PAL
Цветовое пространство : YUV
Подвыборка цветности : 4:2:0
Битовая глубина : 8 бит
Тип развёртки : Чересстрочная
Порядок развёртки : Верхнее поле первое
Метод сжатия : С потерями
Бит/(Пиксели*Кадры) : 1.194
Размер потока : 878 Мбайт (97%)

Аудио
Идентификатор : 189 (0xBD)-128 (0x80)
Формат : AC-3
Формат/Информация : Audio Coding 3
Расширение режима : CM (complete main)
Режим смешивания : DVD-Video
Продолжительность : 9 м. 54 с.
Вид битрейта : Постоянный
Битрейт : 192 Кбит/сек
Канал(ы) : 2 канала(ов)
Расположение каналов : Front: L R
Частота : 48,0 КГц
Битовая глубина : 16 бит
Метод сжатия : С потерями
Задержка видео : -272 мс.
Размер потока : 13,6 Мбайт (1%)

Меню

Общее
Полное имя : J:\www.nnm-club.me\Уроки Тетушки Совы\Чудеса света\VIDEO_TS\VTS_02_0.BUP
Формат : DVD Video
Профиль формата : Program
Размер файла : 12,0 Кбайт
Продолжительность : 17 с.
Общий поток : 5585 бит/сек

Видео
Идентификатор : 224 (0xE0)
Формат : MPEG Video
Версия формата : Version 2
Продолжительность : 17 с.
Вид битрейта : Переменный
Ширина : 720 пикс.
Высота : 576 пикс.
Соотношение сторон : 4:3
Частота кадров : 25,000 кадр/сек
Стандарт вещания : PAL
Метод сжатия : С потерями

Аудио
Идентификатор : 128 (0x80)
Формат : AC-3
Формат/Информация : Audio Coding 3
Продолжительность : 17 с.
Канал(ы) : 2 канала(ов)
Частота : 48,0 КГц
Метод сжатия : С потерями
Язык : English

Меню #1
Продолжительность : 1 с. 600 мс.
00:00:00.000 : Chapter 1
List (Audio) : 0

Меню #2
Продолжительность : 17 с.
00:00:00.000 : Chapter 1
00:00:10.000 : Chapter 2
List (Audio) : 0

Меню #3
Продолжительность : 1 с. 600 мс.
00:00:00.000 : Chapter 1
List (Audio) : 0

Меню #4

Общее
Полное имя : J:\www.nnm-club.me\Уроки Тетушки Совы\Чудеса света\VIDEO_TS\VTS_02_0.IFO
Формат : DVD Video
Профиль формата : Program
Размер файла : 12,0 Кбайт
Продолжительность : 17 с.
Общий поток : 5585 бит/сек

Видео
Идентификатор : 224 (0xE0)
Формат : MPEG Video
Версия формата : Version 2
Продолжительность : 17 с.
Вид битрейта : Переменный
Ширина : 720 пикс.
Высота : 576 пикс.
Соотношение сторон : 4:3
Частота кадров : 25,000 кадр/сек
Стандарт вещания : PAL
Метод сжатия : С потерями

Аудио
Идентификатор : 128 (0x80)
Формат : AC-3
Формат/Информация : Audio Coding 3
Продолжительность : 17 с.
Канал(ы) : 2 канала(ов)
Частота : 48,0 КГц
Метод сжатия : С потерями
Язык : English

Меню #1
Продолжительность : 1 с. 600 мс.
00:00:00.000 : Chapter 1
List (Audio) : 0

Меню #2
Продолжительность : 17 с.
00:00:00.000 : Chapter 1
00:00:10.000 : Chapter 2
List (Audio) : 0

Меню #3
Продолжительность : 1 с. 600 мс.
00:00:00.000 : Chapter 1
List (Audio) : 0

Меню #4

Общее
Полное имя : J:\www.nnm-club.me\Уроки Тетушки Совы\Чудеса света\VIDEO_TS\VTS_02_1.VOB
Формат : MPEG-PS
Размер файла : 10,0 Мбайт

Видео
Идентификатор : 224 (0xE0)
Формат : MPEG Video
Версия формата : Version 2
Профиль формата : Main@Main
Параметр BVOP формата : Да
Параметр матрицы формата : По умолчанию
Вид битрейта : Постоянный
Битрейт : 6000 Кбит/сек
Ширина : 720 пикс.
Высота : 576 пикс.
Соотношение сторон : 4:3
Частота кадров : 25,000 кадр/сек
Стандарт вещания : PAL
Цветовое пространство : YUV
Подвыборка цветности : 4:2:0
Битовая глубина : 8 бит
Тип развёртки : Чересстрочная
Порядок развёртки : Нижнее поле первое
Метод сжатия : С потерями
Бит/(Пиксели*Кадры) : 0.579

Аудио
Идентификатор : 189 (0xBD)-128 (0x80)
Формат : AC-3
Формат/Информация : Audio Coding 3
Расширение режима : CM (complete main)
Режим смешивания : DVD-Video
Вид битрейта : Постоянный
Битрейт : 192 Кбит/сек
Канал(ы) : 2 канала(ов)
Расположение каналов : Front: L R
Частота : 48,0 КГц
Битовая глубина : 16 бит
Метод сжатия : С потерями
Задержка видео : 50 мс.

Меню
Title: Чудеса света
Size: 3.91 Gb ( 4 096 348,00 KBytes ) - DVD-5
Enabled regions: 1, 2, 3, 4, 5, 6, 7, 8

VTS_01 :
Play Length: 00:00:01+01:08:07+00:00:01+00:10:13+00:00:01+00:10:11
Video: PAL 16:9 (720x576) VBR, Auto Letterboxed
Audio:
Russian (Dolby AC3, 2 ch)

VTS_02 :
Play Length: 00:00:01+00:00:17+00:00:01
Video: PAL 4:3 (720x576) VBR
Audio:
English (Dolby AC3, 2 ch)

* Menus Information *

VIDEO_TS Menu
Video:
PAL 16:9 (720x576) VBR
Auto Letterboxed
Audio:
Not specified (Dolby AC3, 2 ch)
Russian Language Unit :
Title Menu

VTS_01 Menu
Video:
PAL 16:9 (720x576) VBR
Auto Letterboxed
Audio:
Not specified (Dolby AC3, 2 ch)
Russian Language Unit :
Root Menu

VTS_02 Menu
Video:
NTSC 4:3 (720x480) VBR
Auto Pan&Scan, Auto Letterboxed
Language Unit :
Angle menu
Language Unit :

Language Unit :
Продолжительность: 01:08:00
Качество видео: DVD5

Видеокодек: MPEG-2
Битрейт видео: ~8 000 Kbps (0.772 bit/pixel)
Размер кадра: PAL 16:9 (720x576) VBR Auto Letterboxed
Аудиокодек: AC3
Битрейт аудио: 48.0 KHz, 2 ch, 192 Kbps, CBR

Скриншоты:
Время раздачи: 24/7 - круглосуточно
Image
Нажми на меня, и я укажу тебе путь к остальным моим историям.
[NNM-Club.ru]_CHudesa sveta.torrent
 Торрент: Платиновая раздача  Зарегистрирован
 
Скачать


Примагнититься
 Зарегистрирован:   14 Мар 2011 12:31:37
 Размер:   3,91 GB  (
 Рейтинг:   4,9 (Голосов: 53)
 Поблагодарили:   199
 Проверка:   Оформление проверено модератором 14 Мар 2011 13:39:47
Как cкачать  ·  Как раздать  ·  Правильно оформить  ·  Поднять ратио!  
Loading...
serega1884
Стаж: 9 лет 3 мес.
Сообщений: 335
Ratio: 6,873
100%
ukraine.gif
МОЛОДЕЦ =) !!!
Игорь: ) ®
Коллекционер Союзмультфильма
Стаж: 10 лет 3 мес.
Сообщений: 492
Ratio: 68,838
Раздал: 4,92 TB
Поблагодарили: 55969
100%
ukraine.gif
serega1884 писал(а): Перейти к сообщению
МОЛОДЕЦ =) !!!


Стараюсь. :приветствую:

_________________
Мои релизы
Edvin787
Стаж: 8 лет 8 мес.
Сообщений: 73
Ratio: 1,57
Поблагодарили: 996
99.15%
latvia.gif
Спасибо моя маленькая сестра каждый день смотрит
snatenko
Стаж: 8 лет 8 мес.
Сообщений: 10
Ratio: 182,575
100%
russia.gif
Спасибо!
Показать сообщения:   
Начать новую тему   Ответить на тему    Торрент-трекер NNM-Club -> Видео -> Развивающее Видео для детей Часовой пояс: GMT + 3
Страница 1 из 1