Классический форум-трекер
canvas not supported
Нас вместе: 4 079 060

James Last - The Classical Collection (2003) 2CD [FLAC|Lossless]<Instrumental>


 
 
RSS
Начать новую тему   Ответить на тему    Торрент-трекер NNM-Club -> Классика -> В обработке/Classical Crossover/Neoclassical (Lossless)
Автор Сообщение
stef55 ®
Стаж: 10 лет 5 мес.
Сообщений: 25
Ratio: 5,714
Поблагодарили: 1841
0.37%
russia.gif
James Last - The Classical Collection (2003)
Кодек: FLAC
Битрейт: Lossless
Год: 2003
Жанр: Instrumental, Modern
Продолжительность: 02:43:00

Кодек: FLAC
Битрейт: Lossless
Тип рипа: image +.cue
Страна изготовитель: EU
Издатель: Universal Classics
Номер по каталогу: 2CD 98104557
CATALOG: 0602498104576
Источник: Web
Наличие сканов в содержимом раздачи: да
Треклист:
01. Eine Kleine Nachtmusik - Mozart
02. Adagio - Albinoni
03. Concierto De Aranjues Andante - Rodrigo
04. Ballade Pour Adeline - Seneville & Toussaint
05. Spring (Four Seasons) - Vivaldi
06. Ave Maria - Bach & Gounod
07. Intermezzo From Cavalleria Rusticana - Mascagni
08. Pictures At An Exhibition - Mussorgsky
09. Fur Elise - Beethoven
10. Second Waltz - Shostakovich
11. Air On A G String - Bach
12. March Of The Toreadors From Carmen - Bizet
13. Barcarolle From The Tales Of Hoffmann - Offenbach
14. Humming Chorus From Madame Butterfly - Puccini
15. Rhapsody On A Theme Of Paganini - Rachmaninov
16. Moonlight Sonata - Beethoven
17. Largo (From The New World) - Dvorak
18. In The Hall Of The Mountain King - Grieg
19. Roses From The South - Strauss
20. Ritual Fire Dance - Falla
Прoдолжительность: 01:17:51
Код:

Exact Audio Copy V0.99 prebeta 4 from 23. January 2008

Отчёт EAC об извлечении, выполненном 16. марта 2011, 14:04

James Last / Classical Collection(2 CD)

Дисковод: Optiarc DVD RW AD-7173A   Adapter: 0  ID: 0

Режим чтения                 : Достоверность
Использование точного потока : Да
Отключение кэша аудио        : Да
Использование указателей C2  : Нет

Коррекция смещения при чтении                     : 48
Способность читать области Lead-in и Lead-out     : Нет
Заполнение пропущенных сэмплов тишиной            : Да
Удаление блоков с тишиной в начале и конце        : Нет
При вычислениях CRC использовались нулевые сэмплы : Да
Интерфейс                                         : Встроенный Win32-интерфейс для Win NT/2000

Выходной формат          : Пользовательский кодировщик
Выбранный битрейт        : 768 kBit/s
Качество                 : Высокий
Добавление ID3-тэга      : Нет
Утилита сжатия           : C:\Program Files\Exact Audio Copy\FLAC\FLAC.EXE
Дополнительные параметры : -6 -V -T "ARTIST=%a" -T "TITLE=%t" -T "ALBUM=%g" -T "DATE=%y" -T "TRACKNUMBER=%n" -T "GENRE=%m" -T "COMMENT=%e" %s -o %d

TOC извлечённого CD

     Трек |   Старт  | Длительность | Начальный сектор | Конечный сектор
    ---------------------------------------------------------------------
       1  |  0:00.00 |    5:45.45   |           0      |      25919
       2  |  5:45.45 |    4:41.31   |       25920      |      47025
       3  | 10:27.01 |    4:03.74   |       47026      |      65324
       4  | 14:31.00 |    3:15.37   |       65325      |      79986
       5  | 17:46.37 |    3:04.48   |       79987      |      93834
       6  | 20:51.10 |    5:39.42   |       93835      |     119301
       7  | 26:30.52 |    3:59.61   |      119302      |     137287
       8  | 30:30.38 |    2:54.53   |      137288      |     150390
       9  | 33:25.16 |    2:49.37   |      150391      |     163102
      10  | 36:14.53 |    3:46.53   |      163103      |     180105
      11  | 40:01.31 |    4:26.49   |      180106      |     200104
      12  | 44:28.05 |    2:16.40   |      200105      |     210344
      13  | 46:44.45 |    2:46.60   |      210345      |     222854
      14  | 49:31.30 |    4:36.09   |      222855      |     243563
      15  | 54:07.39 |    2:58.03   |      243564      |     256916
      16  | 57:05.42 |    4:24.60   |      256917      |     276776
      17  | 61:30.27 |    3:09.70   |      276777      |     291021
      18  | 64:40.22 |    2:44.08   |      291022      |     303329
      19  | 67:24.30 |    6:36.09   |      303330      |     333038
      20  | 74:00.39 |    3:50.39   |      333039      |     350327

Характеристики диапазона извлечения и сообщения об ошибках

Выбранный диапазон

     Имя файла C:\Documents and Settings\Admin\Рабочий стол\James Last - Classical Collection (2003)\James Last - Classical Collection(2 CD).wav

     Пиковый уровень 100.0 %
     Качество диапазона 100.0 %
     CRC копии 25E9A7BD
     Копирование... OK

Ошибок не произошло

Конец отчёта

Код:

-----------------------

DON'T MODIFY THIS FILE

-----------------------

PERFORMER: auCDtect Task Manager, ver. 1.6.0 RC1 build 1.6.0.1
Copyright (c) 2008-2010 y-soft. All rights reserved
http://y-soft.org

ANALYZER: auCDtect: CD records authenticity detector, version 0.8.2
Copyright (c) 2004 Oleg Berngardt. All rights reserved.
Copyright (c) 2004 Alexander Djourik. All rights reserved.

FILE: James Last - Classical Collection(2 CD).flac
  Size: 456562690 Hash: E6205E7B63D0CB3CF44C58A056DA32F7 Accuracy: -m0
  Conclusion: CDDA 100%
  Signature: 88A7E55F76B258DE91CE78ED4F136C4100B263C5
Треклист:

01. Winter From The Four Seasons - Vivaldi
02. Mattinata - Leoncavallo
03. Bolero - Ravel
04. Traumerei - Schumann
05. Mozart 40 - Mozart
06. Notturno - Borodin
07. Radetzky March - Strauss
08. Chorus Of The Hebrew Slaves From Nabucco - Verdi
09. Nocturne - Chopin
10. Romeo And Juliet - Tchaikovsky
11. Adagio From Violin Concerto Number 1 - Bruch
12. A Springtime Dream - Vivaldi
13. Theme From Elvira Madigan - Mozart
14. Romance For Violin And Orchestra
15. Liebestraum - Liszt
16. Waltz In A Flat Major Op 39 No 15 - Brahms
17. Largo - Corelli
18. Ballet Music From Prince Igor - Borodin
19. In A Persian Market - Ketelby
20. The Blue Danube - Strauss
Прoдолжительность: 01:17:14
Код:

Exact Audio Copy V0.99 prebeta 4 from 23. January 2008

Отчёт EAC об извлечении, выполненном 16. марта 2011, 17:55

James Last  / Classical Collection  2

Дисковод: Optiarc DVD RW AD-7173A   Adapter: 0  ID: 0

Режим чтения                 : Достоверность
Использование точного потока : Да
Отключение кэша аудио        : Да
Использование указателей C2  : Нет

Коррекция смещения при чтении                     : 48
Способность читать области Lead-in и Lead-out     : Нет
Заполнение пропущенных сэмплов тишиной            : Да
Удаление блоков с тишиной в начале и конце        : Нет
При вычислениях CRC использовались нулевые сэмплы : Да
Интерфейс                                         : Встроенный Win32-интерфейс для Win NT/2000

Выходной формат          : Пользовательский кодировщик
Выбранный битрейт        : 768 kBit/s
Качество                 : Высокий
Добавление ID3-тэга      : Нет
Утилита сжатия           : C:\Program Files\Exact Audio Copy\FLAC\FLAC.EXE
Дополнительные параметры : -6 -V -T "ARTIST=%a" -T "TITLE=%t" -T "ALBUM=%g" -T "DATE=%y" -T "TRACKNUMBER=%n" -T "GENRE=%m" -T "COMMENT=%e" %s -o %d

TOC извлечённого CD

     Трек |   Старт  | Длительность | Начальный сектор | Конечный сектор
    ---------------------------------------------------------------------
       1  |  0:00.00 |    3:21.06   |           0      |      15080
       2  |  3:21.06 |    3:13.56   |       15081      |      29611
       3  |  6:34.62 |    9:08.06   |       29612      |      70717
       4  | 15:42.68 |    4:14.22   |       70718      |      89789
       5  | 19:57.15 |    3:27.50   |       89790      |     105364
       6  | 23:24.65 |    2:46.05   |      105365      |     117819
       7  | 26:10.70 |    2:36.51   |      117820      |     129570
       8  | 28:47.46 |    2:36.02   |      129571      |     141272
       9  | 31:23.48 |    4:43.70   |      141273      |     162567
      10  | 36:07.43 |    2:26.49   |      162568      |     173566
      11  | 38:34.17 |    2:27.36   |      173567      |     184627
      12  | 41:01.53 |    3:47.48   |      184628      |     201700
      13  | 44:49.26 |    3:18.01   |      201701      |     216551
      14  | 48:07.27 |    4:32.24   |      216552      |     236975
      15  | 52:39.51 |    2:50.04   |      236976      |     249729
      16  | 55:29.55 |    2:50.53   |      249730      |     262532
      17  | 58:20.33 |    1:44.22   |      262533      |     270354
      18  | 60:04.55 |    2:29.26   |      270355      |     281555
      19  | 62:34.06 |    3:12.68   |      281556      |     296023
      20  | 65:46.74 |   11:27.30   |      296024      |     347578

Характеристики диапазона извлечения и сообщения об ошибках

Выбранный диапазон

     Имя файла C:\Documents and Settings\Admin\Рабочий стол\Новая папка\James Last  - Classical Collection  2.wav

     Пиковый уровень 100.0 %
     Качество диапазона 100.0 %
     CRC копии 9D1198C5
     Копирование... OK

Ошибок не произошло

Конец отчёта
Код:

-----------------------

DON'T MODIFY THIS FILE

-----------------------

PERFORMER: auCDtect Task Manager, ver. 1.6.0 RC1 build 1.6.0.1
Copyright (c) 2008-2010 y-soft. All rights reserved
http://y-soft.org

ANALYZER: auCDtect: CD records authenticity detector, version 0.8.2
Copyright (c) 2004 Oleg Berngardt. All rights reserved.
Copyright (c) 2004 Alexander Djourik. All rights reserved.

FILE: James Last  - Classical Collection  2.flac
  Size: 466637455 Hash: CA338177EC693A7BEAE054C8733FD57D Accuracy: -m0
  Conclusion: CDDA 100%
  Signature: A98D74FD8AEE44FFC50CB38451DD758B0BC018CF
Описание:
Джеймс Ласт (нем. James Last, настоящее имя Hans Last; род. 17 апреля 1929, Бремен) — немецкий композитор, аранжировщик и дирижёр.
Первое публичное выступление Ласта состоялось в составе Hans-Gunther Osterreich’s Radio Bremen Dance Orchestra в 1946 году. Двумя годами позже Ласт создаёт Last-Becker Ensemble. С 1950 по 1952 гг. Ласт признавался лучшим джазовым басистом года. В 1964 году создал собственный оркестр и стал писать танцевальные аранжировки популярных мелодий различных исполнителей.


Первый же альбом оркестра Джеймса Ласта «Non-Stop Dancing» (1965) имел невероятный успех. С тех пор коллектив под управлением Ласта выпустил более 50 успешных альбомов общим тиражом 60 млн экземпляров, из которых 37 стали «золотыми», а 18 — «платиновыми».

Ласт с неизменным успехом работает с произведениями авторов и исполнителей, представляющих абсолютно разные, зачастую антагонистичные, стили и направления — от традиционной, народной музыки до альтернативного рока, хард-рока, соула и электронной музыки.

Одна из самых известных композиций Ласта «Einsamer Hirt» (Одинокий пастух) — была исполнена им совместно с румынским музыкантом Георге Замфиром и вышла в 1977 году как одноименный сингл. Новую волну популярности мелодии подарил фильм «Убить Билла», где она прозвучала совместно с RZA. Также многие его произведения звучат в мультфильмах «Ну погоди!».
Егор Летов читает стихотворение «Солнце Неспящих» под мелодию «The Lonely Shepherd» Джеймса Ласта.


YouTube
Время раздачи: С 08:00 до 18:30


Поглощение/вытеснение
Только с согласия релизера

DesideriuM

Реставрация релиза: svpavkin63
[NNM-Club.ru]_James Last - Classical Collection (2003).torrent
 Торрент: Платиновая раздача  Зарегистрирован
 
Скачать


Примагнититься
 Зарегистрирован:   16 Мар 2011 18:09:11
 Размер:   882 MB  (
 Рейтинг:   4,9 (Голосов: 28)
 Поблагодарили:   117
 Проверка:   Оформление проверено модератором 18 Мар 2011 12:26:37
Как cкачать  ·  Как раздать  ·  Правильно оформить  ·  Поднять ратио!  
Нафаня46
Стаж: 6 лет 9 мес.
Сообщений: 107
Ratio: 8,788
100%
Спасибо за классику!
Показать сообщения:   
Начать новую тему   Ответить на тему    Торрент-трекер NNM-Club -> Классика -> В обработке/Classical Crossover/Neoclassical (Lossless) Часовой пояс: GMT + 3
Страница 1 из 1