Классический форум-трекер
canvas not supported
Нас вместе: 4 078 976

Осторожно, щука! (1968) DVDRip


 
 
RSS
Начать новую тему   Ответить на тему    Торрент-трекер NNM-Club -> Мультфильмы -> Отечественные Мультфильмы для детей
Автор Сообщение
Гость ®
Осторожно, щука! (1968) DVDRip
Год выпуска: 1968
Жанр: мультфильм, короткометражка

Описание фильма:
Мультипликационный фильм о том, как щука поселилась рядом с плотиной бобров и подстерегала бобрят. В ответ бобрята построили подводный аппарат, чтобы с его помощью прогнать щуку и ее помощника рака, но на помощь пришлось звать и взрослых бобров.

Режиссеры: М.Каменецкий, И.Уфимцев
Сценарист: Элеонора Тадэ



Продолжительность: 00:17:48

Видео: DivX 5, 640х496, 25.000 fps, 2 402 Kbps (0.303 bit/pixel)
Аудио: AC-3, 48.0 KHz, 2 ch, 192 Kbps, CBR
Код:
General
Complete name               : R:\Upload\Реставрация\Schuka[nnm-club.ru]\Осторожно.щука.avi
Format                      : AVI
Format/Info                 : Audio Video Interleave
File size                   : 331 MiB
Duration                    : 17mn 48s
Overall bit rate            : 2 600 Kbps
Writing application         : Nandub v1.0rc2
Writing library             : Nandub build 1853/release

Video
ID                          : 0
Format                      : MPEG-4 Visual
Format settings, BVOP       : 1
Format settings, QPel       : No
Format settings, GMC        : No warppoints
Format settings, Matrix     : Default (H.263)
Muxing mode                 : Packed bitstream
Codec ID                    : DX50
Codec ID/Hint               : DivX 5
Duration                    : 17mn 48s
Bit rate                    : 2 402 Kbps
Width                       : 640 pixels
Height                      : 496 pixels
Display aspect ratio        : 1.290
Frame rate                  : 25.000 fps
Color space                 : YUV
Chroma subsampling          : 4:2:0
Bit depth                   : 8 bits
Scan type                   : Progressive
Compression mode            : Lossy
Bits/(Pixel*Frame)          : 0.303
Stream size                 : 306 MiB (92%)
Writing library             : DivX 5.0.5 (UTC 2003-04-24)

Audio
ID                          : 1
Format                      : AC-3
Format/Info                 : Audio Coding 3
Mode extension              : CM (complete main)
Format settings, Endianness : Big
Codec ID                    : 2000
Duration                    : 17mn 48s
Bit rate mode               : Constant
Bit rate                    : 192 Kbps
Channel(s)                  : 2 channels
Channel positions           : Front: L R
Sampling rate               : 48.0 KHz
Bit depth                   : 16 bits
Compression mode            : Lossy
Delay relative to video     : 16ms
Stream size                 : 24.5 MiB (7%)
Alignment                   : Split accross interleaves
Interleave, duration        : 128 ms (3.20 video frames)
Interleave, preload duratio : 128 ms

Скриншоты:
Schuka[nnm-club.ru].torrent
 Торрент: Платиновая раздача  Зарегистрирован
 
Скачать


 Зарегистрирован:   14 Авг 2007 00:41:38
 Размер:   331 MB  (
 Рейтинг:   4,9 (Голосов: 50)
 Поблагодарили:   146
 Проверка:   Оформление проверено модератором 14 Авг 2007 11:32:16
Как cкачать  ·  Как раздать  ·  Правильно оформить  ·  Поднять ратио!  
Загрузка...
Bujhm-SO
Стаж: 12 лет 6 мес.
Сообщений: 12
Ratio: 4,232
Раздал: 528 GB
0%
pirates.png
-OkO- писал(а):
…советский мультфильм … про бобрят…

так и хоцца исправить на "мультфильм про советских бобрят…" :подмигивание:
А мульт бесспорно - шедевр.
Спасибо!
antos
Стаж: 10 лет
Сообщений: 17
Ratio: 2,311
100%
portugal.gif
Спасибо класный старый мульт
Bacha
Стаж: 10 лет
Сообщений: 1533
Ratio: 129,865
Поблагодарили: 2506
100%
Откуда: СССР
nnm-club.gif
Кто скачал-помогите!Сутки уже качаю.:убится ап стену:
Показать сообщения:   
Начать новую тему   Ответить на тему    Торрент-трекер NNM-Club -> Мультфильмы -> Отечественные Мультфильмы для детей Часовой пояс: GMT + 3
Страница 1 из 1