Классический форум-трекер
canvas not supported
Нас вместе: 4 079 464

Paul Mauriat - World Love Sounds(5 CD)(Japan) (1998) [FLAC|Lossless]<Instrumental>


 
 
RSS
Начать новую тему   Ответить на тему    Торрент-трекер NNM-Club -> Other Styles -> Instrumental (Lossless)
Автор Сообщение
stef55 ®
Стаж: 10 лет 5 мес.
Сообщений: 25
Ratio: 5,714
Поблагодарили: 1841
0.37%
russia.gif
Paul Mauriat - World Love Sounds(5 CD)(Japan) (1998)
Год: 1998
Жанр: Instrumental
Продолжительность: 01:23:45
Кодек: FLAC
Битрейт: Lossless
Тип битрейта: CBR
Код:


CD 1
01. Love Is Blue
02. I Like Chopin
03. El Bimbo
04. Pearl Fisher
05. Penelope
06. I Will Follow Him (Chariot)
07. Toccata
08. La Chanson Pour Anna
09. Mamy Blue
10. Minuetto
11. Brasilia Carnaval
12. Nocturne
13. La Reine De Saba
14. Siffler Sur La Colline
15. Tombe La Neige
16. Godfather
17. Petite Melodie
18. Piano Ballade (sur un Theme de F.Chopin)

CD 2
01. El Condor Pasa
02. Sunny
03. Careless Whisper
04. Souvenirs (Memory)
05. I Just Called To Say I Love You
06. Bridge Over Troubled Water
07. Yesterday
08. Hey Jude
09. Yesterday Once More
10. Mandy
11. Physical
12. Flashdance - What a Feeling
13. Thriller
14. Let It Be
15. Mrs. Robinson
16. Aquarius
17. Holidays
18. Melody Fair

CD 3
01. Love Story
02. Romeo Et Juliette
03. 13 Jours En France
04. Les Moulins De Mon Coeur
05. Jeux Interdits
06. Un Homme St Une Femme
07. Le Passager De La Pluie
08. Isadora
09. The Way We Were
10. Contigo Mi Vida
11. Dansez Maintenant
12. La Lecon Particuliere
13. La Chanson De Lara
14. Sound Of Silence
15. A Summer Place
16. Raindrops Keep Falling On My Head
17. How Deep Is Your Love
18. Amapola

CD 4
01. Hymne A L'Amour
02. Le Temps Des Fleurs
03. Generique
04. Pour Un Flirt
05. Soleado
06. Qui Saura
07. My Way (Comme d'habitude)
08. L'Orage
09. L'Aigle Noir
10. Sayonara
11. Rain And Tears
12. Catherine
13. Je T'Aime Moi Non Plus
14. Inch Allah
15. Aranjuez
16. Le Piano Sur La Vague
17. Pegase
18. Pobre Diable

CD 5
01. O Show Ja Terminou
02. Teimosa
03. Folhas Secas
04. Joanna Francesa
05. O Moco Velho
06. Amada Amante
07. Retalhos de Cetim
08. Carinhoso
09. Proposta
10. Eu So Quero Um Xodo
11. Oracao Da Mae Meninnha
12. Naquela Mesa
13. Amigo
14. Tranquei Avida
15. Somos Todos Iguais Nesta Noite
16. Qualquer Coisa
17. Foi Assim
18. Joizo Final
Код:

CD 1
Exact Audio Copy V0.99 prebeta 5 from 4. May 2009

Отчёт EAC об извлечении, выполненном 18. апреля 2010, 19:20

Paul Mauriat / World Love Sounds Disk 1

Дисковод: HL-DT-STDVDRAM GSA-4084N   Adapter: 0  ID: 0

Режим чтения                 : Достоверность
Использование точного потока : Да
Отключение кэша аудио        : Да
Использование указателей C2  : Нет

Коррекция смещения при чтении                     : 667
Способность читать области Lead-in и Lead-out     : Нет
Заполнение пропущенных сэмплов тишиной            : Да
Удаление блоков с тишиной в начале и конце        : Нет
При вычислениях CRC использовались нулевые сэмплы : Да
Интерфейс                                         : Встроенный Win32-интерфейс для Win NT/2000

Выходной формат : Внутренние WAV-операции
Формат сэмплов  : 44.100 Гц; 16 бит; стерео

TOC извлечённого CD

     Трек |   Старт  | Длительность | Начальный сектор | Конечный сектор
    ---------------------------------------------------------------------
       1  |  0:00.00 |    2:39.25   |           0      |      11949
       2  |  2:39.25 |    3:44.55   |       11950      |      28804
       3  |  6:24.05 |    2:33.12   |       28805      |      40291
       4  |  8:57.17 |    3:15.05   |       40292      |      54921
       5  | 12:12.22 |    3:59.68   |       54922      |      72914
       6  | 16:12.15 |    2:47.67   |       72915      |      85506
       7  | 19:00.07 |    2:43.08   |       85507      |      97739
       8  | 21:43.15 |    2:49.00   |       97740      |     110414
       9  | 24:32.15 |    2:50.65   |      110415      |     123229
      10  | 27:23.05 |    2:25.02   |      123230      |     134106
      11  | 29:48.07 |    2:46.73   |      134107      |     146629
      12  | 32:35.05 |    2:48.07   |      146630      |     159236
      13  | 35:23.12 |    3:06.05   |      159237      |     173191
      14  | 38:29.17 |    2:24.63   |      173192      |     184054
      15  | 40:54.05 |    2:56.00   |      184055      |     197254
      16  | 43:50.05 |    2:39.70   |      197255      |     209249
      17  | 46:30.00 |    2:58.07   |      209250      |     222606
      18  | 49:28.07 |    3:09.30   |      222607      |     236811

Характеристики диапазона извлечения и сообщения об ошибках

Выбранный диапазон

     Имя файла I:\Music\PM\PM_lossless\Vol.1\Paul Mauriat - World Love Sounds Disk 1.wav

     Пиковый уровень 100.0 %
     Качество диапазона 100.0 %
     CRC копии BB3CC0FD
     Копирование... OK

Ошибок не произошло

AccurateRip: сводка

Трек  1  точное извлечение (доверие 1)  [18358EF1]
Трек  2  точное извлечение (доверие 1)  [72C77D9E]
Трек  3  точное извлечение (доверие 1)  [6FB44933]
Трек  4  точное извлечение (доверие 1)  [65B70696]
Трек  5  нет в базе данных
Трек  6  точное извлечение (доверие 1)  [34C58426]
Трек  7  точное извлечение (доверие 1)  [63725967]
Трек  8  точное извлечение (доверие 1)  [F36B669D]
Трек  9  точное извлечение (доверие 1)  [F76732E3]
Трек 10  точное извлечение (доверие 1)  [175BE8E3]
Трек 11  точное извлечение (доверие 1)  [1170F6E0]
Трек 12  точное извлечение (доверие 1)  [972A0EB0]
Трек 13  точное извлечение (доверие 1)  [71445952]
Трек 14  точное извлечение (доверие 1)  [BA3244C6]
Трек 15  точное извлечение (доверие 1)  [1931A39E]
Трек 16  точное извлечение (доверие 1)  [65C357B4]
Трек 17  точное извлечение (доверие 1)  [78F3A2F4]
Трек 18  точное извлечение (доверие 1)  [FB0EA998]

17 трек(и) скопированы точно
 1 трек(и) не содержатся в базе AccurateRip

Некоторые треки не прошли проверку на точность

Конец отчёта

CD 2
Exact Audio Copy V0.99 prebeta 5 from 4. May 2009

Отчёт EAC об извлечении, выполненном 18. апреля 2010, 19:39

Paul Mauriat / World Love Sounds Disk 2

Дисковод: HL-DT-STDVDRAM GSA-4084N   Adapter: 0  ID: 0

Режим чтения                 : Достоверность
Использование точного потока : Да
Отключение кэша аудио        : Да
Использование указателей C2  : Нет

Коррекция смещения при чтении                     : 667
Способность читать области Lead-in и Lead-out     : Нет
Заполнение пропущенных сэмплов тишиной            : Да
Удаление блоков с тишиной в начале и конце        : Нет
При вычислениях CRC использовались нулевые сэмплы : Да
Интерфейс                                         : Встроенный Win32-интерфейс для Win NT/2000

Выходной формат : Внутренние WAV-операции
Формат сэмплов  : 44.100 Гц; 16 бит; стерео

TOC извлечённого CD

     Трек |   Старт  | Длительность | Начальный сектор | Конечный сектор
    ---------------------------------------------------------------------
       1  |  0:00.00 |    3:10.12   |           0      |      14261
       2  |  3:10.12 |    2:38.03   |       14262      |      26114
       3  |  5:48.15 |    3:39.00   |       26115      |      42539
       4  |  9:27.15 |    3:30.00   |       42540      |      58289
       5  | 12:57.15 |    3:48.72   |       58290      |      75461
       6  | 16:46.12 |    3:06.33   |       75462      |      89444
       7  | 19:52.45 |    2:33.42   |       89445      |     100961
       8  | 22:26.12 |    3:10.05   |      100962      |     115216
       9  | 25:36.17 |    3:48.70   |      115217      |     132386
      10  | 29:25.12 |    2:21.73   |      132387      |     143034
      11  | 31:47.10 |    3:09.70   |      143035      |     157279
      12  | 34:57.05 |    3:48.42   |      157280      |     174421
      13  | 38:45.47 |    4:23.65   |      174422      |     194211
      14  | 43:09.37 |    2:58.15   |      194212      |     207576
      15  | 46:07.52 |    3:08.33   |      207577      |     221709
      16  | 49:16.10 |    2:34.00   |      221710      |     233259
      17  | 51:50.10 |    2:37.00   |      233260      |     245034
      18  | 54:27.10 |    2:49.07   |      245035      |     257716

Характеристики диапазона извлечения и сообщения об ошибках

Выбранный диапазон

     Имя файла I:\Music\PM\PM_lossless\Vol.2\Paul Mauriat - World Love Sounds Disk 2.wav

     Пиковый уровень 100.0 %
     Качество диапазона 99.9 %
     CRC копии 68C2AFD8
     Копирование... OK

Ошибок не произошло

AccurateRip: сводка

Трек  1  точное извлечение (доверие 1)  [EABCA45A]
Трек  2  точное извлечение (доверие 1)  [08AD0A16]
Трек  3  точное извлечение (доверие 1)  [8EFF7342]
Трек  4  точное извлечение (доверие 1)  [5DFC34F9]
Трек  5  точное извлечение (доверие 1)  [15B48254]
Трек  6  точное извлечение (доверие 1)  [4F5ED760]
Трек  7  точное извлечение (доверие 1)  [29BF64B0]
Трек  8  точное извлечение (доверие 1)  [ADA11E21]
Трек  9  точное извлечение (доверие 1)  [0EFD9A2E]
Трек 10  точное извлечение (доверие 1)  [0D97EDB1]
Трек 11  точное извлечение (доверие 1)  [EED8A436]
Трек 12  точное извлечение (доверие 1)  [946D12C4]
Трек 13  точное извлечение (доверие 1)  [F5EFDA5F]
Трек 14  точное извлечение (доверие 1)  [D1724B6C]
Трек 15  точное извлечение (доверие 1)  [FE60725E]
Трек 16  точное извлечение (доверие 1)  [A4FD38F6]
Трек 17  точное извлечение (доверие 1)  [0E01F32F]
Трек 18  точное извлечение (доверие 1)  [51FAC805]

Все треки извлечены точно

Конец отчёта

CD 3
Exact Audio Copy V0.99 prebeta 5 from 4. May 2009

Отчёт EAC об извлечении, выполненном 18. апреля 2010, 20:10

Paul Mauriat / World Love Sounds Disk 3

Дисковод: HL-DT-STDVDRAM GSA-4084N   Adapter: 0  ID: 0

Режим чтения                 : Достоверность
Использование точного потока : Да
Отключение кэша аудио        : Да
Использование указателей C2  : Нет

Коррекция смещения при чтении                     : 667
Способность читать области Lead-in и Lead-out     : Нет
Заполнение пропущенных сэмплов тишиной            : Да
Удаление блоков с тишиной в начале и конце        : Нет
При вычислениях CRC использовались нулевые сэмплы : Да
Интерфейс                                         : Встроенный Win32-интерфейс для Win NT/2000

Выходной формат : Внутренние WAV-операции
Формат сэмплов  : 44.100 Гц; 16 бит; стерео

TOC извлечённого CD

     Трек |   Старт  | Длительность | Начальный сектор | Конечный сектор
    ---------------------------------------------------------------------
       1  |  0:00.00 |    3:04.20   |           0      |      13819
       2  |  3:04.20 |    2:45.72   |       13820      |      26266
       3  |  5:50.17 |    2:36.03   |       26267      |      37969
       4  |  8:26.20 |    2:53.05   |       37970      |      50949
       5  | 11:19.25 |    3:23.70   |       50950      |      66244
       6  | 14:43.20 |    2:24.67   |       66245      |      77111
       7  | 17:08.12 |    3:34.08   |       77112      |      93169
       8  | 20:42.20 |    3:01.67   |       93170      |     106811
       9  | 23:44.12 |    2:31.00   |      106812      |     118136
      10  | 26:15.12 |    2:49.38   |      118137      |     130849
      11  | 29:04.50 |    3:04.42   |      130850      |     144691
      12  | 32:09.17 |    1:59.70   |      144692      |     153686
      13  | 34:09.12 |    2:54.03   |      153687      |     166739
      14  | 37:03.15 |    3:05.70   |      166740      |     180684
      15  | 40:09.10 |    2:20.65   |      180685      |     191249
      16  | 42:30.00 |    2:53.12   |      191250      |     204236
      17  | 45:23.12 |    3:05.28   |      204237      |     218139
      18  | 48:28.40 |    3:30.65   |      218140      |     233954

Характеристики диапазона извлечения и сообщения об ошибках

Выбранный диапазон

     Имя файла I:\Music\PM\PM_lossless\Vol.3\Paul Mauriat - World Love Sounds Disk 3.wav

     Пиковый уровень 100.0 %
     Качество диапазона 99.9 %
     CRC копии B0F7D96D
     Копирование... OK

Ошибок не произошло

AccurateRip: сводка

Трек  1  точное извлечение (доверие 1)  [4BD7671D]
Трек  2  точное извлечение (доверие 1)  [6B73F85F]
Трек  3  точное извлечение (доверие 1)  [061E77AF]
Трек  4  точное извлечение (доверие 1)  [ECBF5669]
Трек  5  точное извлечение (доверие 1)  [909D0F8E]
Трек  6  точное извлечение (доверие 1)  [A08D73D7]
Трек  7  точное извлечение (доверие 1)  [669701E7]
Трек  8  точное извлечение (доверие 1)  [9D92FBA1]
Трек  9  точное извлечение (доверие 1)  [BEC3CE73]
Трек 10  точное извлечение (доверие 1)  [7C65D3AB]
Трек 11  точное извлечение (доверие 1)  [A9B031E1]
Трек 12  точное извлечение (доверие 1)  [F2F8DFE1]
Трек 13  точное извлечение (доверие 1)  [01D35557]
Трек 14  точное извлечение (доверие 1)  [8A6FFCDF]
Трек 15  точное извлечение (доверие 1)  [D8E8F677]
Трек 16  точное извлечение (доверие 1)  [76781CAE]
Трек 17  точное извлечение (доверие 1)  [5E37246B]
Трек 18  точное извлечение (доверие 1)  [7A077839]

Все треки извлечены точно

Конец отчёта

CD 4
Exact Audio Copy V0.99 prebeta 5 from 4. May 2009

Отчёт EAC об извлечении, выполненном 18. апреля 2010, 20:29

Paul Mauriat / World Love Sounds Disk 4

Дисковод: HL-DT-STDVDRAM GSA-4084N   Adapter: 0  ID: 0

Режим чтения                 : Достоверность
Использование точного потока : Да
Отключение кэша аудио        : Да
Использование указателей C2  : Нет

Коррекция смещения при чтении                     : 667
Способность читать области Lead-in и Lead-out     : Нет
Заполнение пропущенных сэмплов тишиной            : Да
Удаление блоков с тишиной в начале и конце        : Нет
При вычислениях CRC использовались нулевые сэмплы : Да
Интерфейс                                         : Встроенный Win32-интерфейс для Win NT/2000

Выходной формат : Внутренние WAV-операции
Формат сэмплов  : 44.100 Гц; 16 бит; стерео

TOC извлечённого CD

     Трек |   Старт  | Длительность | Начальный сектор | Конечный сектор
    ---------------------------------------------------------------------
       1  |  0:00.32 |    3:36.10   |          32      |      16241
       2  |  3:36.42 |    2:51.05   |       16242      |      29071
       3  |  6:27.47 |    2:47.08   |       29072      |      41604
       4  |  9:14.55 |    2:28.40   |       41605      |      52744
       5  | 11:43.20 |    3:19.02   |       52745      |      67671
       6  | 15:02.22 |    2:39.68   |       67672      |      79664
       7  | 17:42.15 |    2:56.05   |       79665      |      92869
       8  | 20:38.20 |    2:30.72   |       92870      |     104191
       9  | 23:09.17 |    4:26.03   |      104192      |     124144
      10  | 27:35.20 |    2:36.72   |      124145      |     135916
      11  | 30:12.17 |    2:27.03   |      135917      |     146944
      12  | 32:39.20 |    2:35.05   |      146945      |     158574
      13  | 35:14.25 |    3:07.65   |      158575      |     172664
      14  | 38:22.15 |    2:52.60   |      172665      |     185624
      15  | 41:15.00 |    5:08.25   |      185625      |     208749
      16  | 46:23.25 |    3:27.30   |      208750      |     224304
      17  | 49:50.55 |    3:35.45   |      224305      |     240474
      18  | 53:26.25 |    3:01.70   |      240475      |     254119

Характеристики диапазона извлечения и сообщения об ошибках

Выбранный диапазон

     Имя файла I:\Music\PM\PM_lossless\Vol.4\Paul Mauriat - World Love Sounds Disk 4.wav

     Пиковый уровень 100.0 %
     Качество диапазона 100.0 %
     CRC копии 7AFFDF37
     Копирование... OK

Ошибок не произошло

AccurateRip: сводка

Трек  1  точное извлечение (доверие 1)  [0176DD01]
Трек  2  точное извлечение (доверие 1)  [03593BDE]
Трек  3  точное извлечение (доверие 1)  [687C2C3A]
Трек  4  точное извлечение (доверие 1)  [5267AADE]
Трек  5  точное извлечение (доверие 1)  [45A79C1B]
Трек  6  точное извлечение (доверие 1)  [F060C2EC]
Трек  7  точное извлечение (доверие 1)  [769BCE5C]
Трек  8  точное извлечение (доверие 1)  [4F7A8853]
Трек  9  точное извлечение (доверие 1)  [56E3EB54]
Трек 10  точное извлечение (доверие 1)  [FFEC1F8F]
Трек 11  точное извлечение (доверие 1)  [F4B12277]
Трек 12  точное извлечение (доверие 1)  [71B90000]
Трек 13  точное извлечение (доверие 1)  [B855132A]
Трек 14  точное извлечение (доверие 1)  [95979EF9]
Трек 15  точное извлечение (доверие 1)  [66B7499D]
Трек 16  точное извлечение (доверие 1)  [E9B9BF83]
Трек 17  точное извлечение (доверие 1)  [D815CC1D]
Трек 18  точное извлечение (доверие 1)  [3A8FDAC1]

Все треки извлечены точно

Конец отчёта

CD 5
Exact Audio Copy V0.99 prebeta 5 from 4. May 2009

Отчёт EAC об извлечении, выполненном 18. апреля 2010, 20:52

Paul Mauriat / World Love Sounds Disk 5

Дисковод: HL-DT-STDVDRAM GSA-4084N   Adapter: 0  ID: 0

Режим чтения                 : Достоверность
Использование точного потока : Да
Отключение кэша аудио        : Да
Использование указателей C2  : Нет

Коррекция смещения при чтении                     : 667
Способность читать области Lead-in и Lead-out     : Нет
Заполнение пропущенных сэмплов тишиной            : Да
Удаление блоков с тишиной в начале и конце        : Нет
При вычислениях CRC использовались нулевые сэмплы : Да
Интерфейс                                         : Встроенный Win32-интерфейс для Win NT/2000

Выходной формат : Внутренние WAV-операции
Формат сэмплов  : 44.100 Гц; 16 бит; стерео

TOC извлечённого CD

     Трек |   Старт  | Длительность | Начальный сектор | Конечный сектор
    ---------------------------------------------------------------------
       1  |  0:00.00 |    2:41.05   |           0      |      12079
       2  |  2:41.05 |    3:05.25   |       12080      |      25979
       3  |  5:46.30 |    2:48.35   |       25980      |      38614
       4  |  8:34.65 |    3:18.65   |       38615      |      53529
       5  | 11:53.55 |    3:28.45   |       53530      |      69174
       6  | 15:22.25 |    3:38.02   |       69175      |      85526
       7  | 19:00.27 |    3:38.73   |       85527      |     101949
       8  | 22:39.25 |    4:03.27   |      101950      |     120201
       9  | 26:42.52 |    3:21.65   |      120202      |     135341
      10  | 30:04.42 |    2:50.18   |      135342      |     148109
      11  | 32:54.60 |    2:45.20   |      148110      |     160504
      12  | 35:40.05 |    2:14.27   |      160505      |     170581
      13  | 37:54.32 |    4:11.60   |      170582      |     189466
      14  | 42:06.17 |    2:50.05   |      189467      |     202221
      15  | 44:56.22 |    3:29.23   |      202222      |     217919
      16  | 48:25.45 |    2:48.05   |      217920      |     230524
      17  | 51:13.50 |    3:32.10   |      230525      |     246434
      18  | 54:45.60 |    2:45.67   |      246435      |     258876

Характеристики диапазона извлечения и сообщения об ошибках

Выбранный диапазон

     Имя файла I:\Music\PM\PM_lossless\Vol.5\Paul Mauriat - World Love Sounds Disk 5.wav

     Пиковый уровень 100.0 %
     Качество диапазона 100.0 %
     CRC копии 0FD412E8
     Копирование... OK

Ошибок не произошло

AccurateRip: сводка

Трек  1  точное извлечение (доверие 1)  [3718794E]
Трек  2  точное извлечение (доверие 1)  [E73D41EA]
Трек  3  точное извлечение (доверие 1)  [424B55E8]
Трек  4  точное извлечение (доверие 1)  [5E713CD7]
Трек  5  точное извлечение (доверие 1)  [D6B31B8F]
Трек  6  точное извлечение (доверие 1)  [16291E22]
Трек  7  точное извлечение (доверие 1)  [5C056A9B]
Трек  8  точное извлечение (доверие 1)  [1E396108]
Трек  9  точное извлечение (доверие 1)  [F5A24F6E]
Трек 10  точное извлечение (доверие 1)  [4D0A781E]
Трек 11  точное извлечение (доверие 1)  [A4909799]
Трек 12  точное извлечение (доверие 1)  [5F332C1B]
Трек 13  точное извлечение (доверие 1)  [C6000807]
Трек 14  точное извлечение (доверие 1)  [CEC0AAB1]
Трек 15  точное извлечение (доверие 1)  [C9F45E0A]
Трек 16  точное извлечение (доверие 1)  [BB93EB1F]
Трек 17  точное извлечение (доверие 1)  [4C108ED3]
Трек 18  точное извлечение (доверие 1)  [40648FFF]

Все треки извлечены точно

Конец отчёта
Код:

CD 1

AUDIOCHECKER v2.0 beta (build 457) - by Dester - opdester@freemail.hu
~~~~~~~~~~~~~~~~~~~~~~~~~~~~~~~~~~
-=== НЕ РЕДАКТИРУЙТЕ ЭТОТ ФАЙЛ! ===-

Путь: ...\Vol.1

1 -=- CDImage.flac -=- CDDA (100%)

32314260

CD 2

AUDIOCHECKER v2.0 beta (build 457) - by Dester - opdester@freemail.hu
~~~~~~~~~~~~~~~~~~~~~~~~~~~~~~~~~~
-=== НЕ РЕДАКТИРУЙТЕ ЭТОТ ФАЙЛ! ===-

Путь: ...\Vol.2

1 -=- CDImage.flac -=- CDDA (100%)

32314260

CD 3

AUDIOCHECKER v2.0 beta (build 457) - by Dester - opdester@freemail.hu
~~~~~~~~~~~~~~~~~~~~~~~~~~~~~~~~~~
-=== НЕ РЕДАКТИРУЙТЕ ЭТОТ ФАЙЛ! ===-

Путь: ...\Vol.3

1 -=- CDImage.flac -=- CDDA (100%)

32314260

CD 4

AUDIOCHECKER v2.0 beta (build 457) - by Dester - opdester@freemail.hu
~~~~~~~~~~~~~~~~~~~~~~~~~~~~~~~~~~
-=== НЕ РЕДАКТИРУЙТЕ ЭТОТ ФАЙЛ! ===-

Путь: ...\Vol.4

1 -=- CDImage.flac -=- CDDA (100%)

32314260

CD 5

AUDIOCHECKER v2.0 beta (build 457) - by Dester - opdester@freemail.hu
~~~~~~~~~~~~~~~~~~~~~~~~~~~~~~~~~~
-=== НЕ РЕДАКТИРУЙТЕ ЭТОТ ФАЙЛ! ===-

Путь: ...\Vol 5

1 -=- CDImage.flac -=- CDDA (100%)

32314260
Время раздачи: С 08:00 до 18:30
[NNM-Club.ru]_1998 - World Love Sounds(5 CD).torrent
 Торрент: Платиновая раздача  Зарегистрирован
 
Скачать


Примагнититься
 Зарегистрирован:   23 Мар 2011 15:04:45
 Размер:   2,31 GB  (
 Рейтинг:   4,9 (Голосов: 35)
 Поблагодарили:   148
 Проверка:   Оформление проверено модератором 17 Апр 2011 17:11:16
Как cкачать  ·  Как раздать  ·  Правильно оформить  ·  Поднять ратио!  
Net_Rat
Стаж: 10 лет 5 мес.
Сообщений: 37
Ratio: 51,717
Раздал: 37,76 TB
100%
Откуда: Крымский колорад
ussr.gif
А варианта в 320 кБит нет? Для плеера флак не совсем удобно(

Разобрался, спасибо)
bumbochka
Стаж: 9 лет 3 мес.
Сообщений: 136
Ratio: 17,35
Поблагодарили: 1228
100%
Откуда: Cеверный полюс
russia.gif
Спасибо, отличный сборник!
Такую музыку бы в DVDA слушать, а не в МР3, тогда да.
muh@
Стаж: 9 лет 1 мес.
Сообщений: 54
Ratio: 6,556
Раздал: 384 GB
100%
russia.gif
Спасибо за раздачу !!! Давно искал.
Показать сообщения:   
Начать новую тему   Ответить на тему    Торрент-трекер NNM-Club -> Other Styles -> Instrumental (Lossless) Часовой пояс: GMT + 3
Страница 1 из 1