Классический форум-трекер
canvas not supported
Нас вместе: 4 094 829

Испытание верности (1954) DVDRip


 
 
RSS
Начать новую тему   Ответить на тему    Торрент-трекер NNM-Club -> Классика кино и Старые фильмы до 90-х -> Отечественная Классика (HD*Rip/LQ, DVDRip, SATRip, VHSRip)
Автор Сообщение
viktor561 ®
Гость
Испытание верности (1954) DVDRip
Русское название: Испытание верности
Год выпуска: 1954
Жанр: Драма, Мелодрама

Описание фильма:
Кинодрама о непростых человеческих судьбах, о любви и разлуке, измене и преданности, об умении простить ошибку и не бросить близкого человека в беде...О семье старого потомственного рабочего Егора Кузьмича Лутонина по пьесе И. Пырьева и братьев Тур «Семья Лутониных».Этот фильм интересен не только сюжетом и игрой актеров, но и бессмертной музыкой Исаака Осиповича Дунаевского.

Режиссер: Иван Пырьев
Актеры: Юрий Медведев, Олег Голубицкий, Нина Гребешкова, Владимир Гуляев, Владимир Земляникин, Марина Ладынина, Александр Михайлов, Юрий Пузырев, Станислав Чекан, Леонид Галлис, Николай Тимофеев, Владимир Гусев, Сергей Ромоданов, Василий Топорков, Петр Старковский

Продолжительность: 01:51:44



Видеокодек: DivX Codec 5.x or 6.x
Битрейт видео: ~2179 kb/s avg, 0.22 bit/pixel
Размер кадра: 720x544 (1.32:1)
Качество видео: DVDRip
Аудиокодек: AC3 Dolby Digital, 3/2 (L,C,R,l,r) + LFE ch
Битрейт аудио: ~448.00 kb/s
Общее
Полное имя : C:\ispitanie_vernosti.avi
Формат : AVI
Формат/Информация : Audio Video Interleave
Профиль формата : OpenDML
Размер файла : 2,06 Гбайт
Продолжительность : 1 ч. 51 м.
Общий поток : 2634 Кбит/сек
Программа кодирования : VirtualDubModRus 1.5.10.2 (build 2540/release)
Библиотека кодирования : VirtualDubMod build 2540/release

Видео
Идентификатор : 0
Формат : MPEG-4 Visual
Параметр BVOP формата : Да
Параметр QPel формата : Нет
Параметр GMC формата : Без точки перехода
Параметр матрицы формата : Default (H.263)
Идентификатор кодека : DX50
Идентификатор кодека/Подсказка : DivX 5
Продолжительность : 1 ч. 51 м.
Битрейт : 2174 Кбит/сек
Ширина : 720 пикселей
Высота : 544 пикселя
Соотношение сторон : 4:3
Частота кадров : 25,000 кадров/сек
Цветовое пространство : YUV
Субдискретизация насыщенности : 4:2:0
Битовая глубина : 8 бит
Тип развёртки : Прогрессивная
Метод сжатия : С потерями
Бит/(Пиксели*Кадры) : 0.222
Размер потока : 1,70 Гбайт (83%)
Библиотека кодирования : DivX 6.8.2 (UTC 2008-05-17)

Аудио
Идентификатор : 1
Формат : AC-3
Формат/Информация : Audio Coding 3
Расширение режима : CM (complete main)
Идентификатор кодека : 2000
Продолжительность : 1 ч. 51 м.
Вид битрейта : Постоянный
Битрейт : 448 Кбит/сек
Каналы : 6 каналов
Расположение каналов : Front: L C R, Side: L R, LFE
Частота : 48,0 КГц
Битовая глубина : 16 бит
Метод сжатия : С потерями
Размер потока : 358 Мбайт (17%)
Выравнивание : Разделение по промежуткам
Продолжительность промежутка : 40 мс. (1,00 видеокадр)
Время предзагрузки промежутка : 500 мс.
Скриншоты:


Время раздачи: 24/7 - круглосуточно до 10 скачавших
[NNM-Club.ru]_ispitanie_vernosti.avi.torrent
 Торрент: Платиновая раздача  Зарегистрирован
 
Скачать


 Зарегистрирован:   08 Апр 2011 21:21:22
 Размер:   2,06 GB  (
 Рейтинг:   4,9 (Голосов: 42)
 Поблагодарили:   150
 Проверка:   Оформление проверено модератором 08 Апр 2011 21:53:41
Как cкачать  ·  Как раздать  ·  Правильно оформить  ·  Поднять ратио!  
viktor561 ®
Гость
Мои релизы:
Не забываем про "СПАСИБО"
Leonid56
Стаж: 8 лет 1 мес.
Сообщений: 4
Ratio: 0,331
100%
СПАСИБО!
Викторов ®
Гость
Реставрация
Викторов ®
Гость
Еще реставрация
Общее
Полное имя : C:\ispitanie_vernosti.avi
Формат : AVI
Формат/Информация : Audio Video Interleave
Профиль формата : OpenDML
Размер файла : 2,06 Гбайт
Продолжительность : 1 ч. 51 м.
Общий поток : 2634 Кбит/сек
Программа кодирования : VirtualDubModRus 1.5.10.2 (build 2540/release)
Библиотека кодирования : VirtualDubMod build 2540/release

Видео
Идентификатор : 0
Формат : MPEG-4 Visual
Параметр BVOP формата : Да
Параметр QPel формата : Нет
Параметр GMC формата : Без точки перехода
Параметр матрицы формата : Default (H.263)
Идентификатор кодека : DX50
Идентификатор кодека/Подсказка : DivX 5
Продолжительность : 1 ч. 51 м.
Битрейт : 2174 Кбит/сек
Ширина : 720 пикселей
Высота : 544 пикселя
Соотношение сторон : 4:3
Частота кадров : 25,000 кадров/сек
Цветовое пространство : YUV
Субдискретизация насыщенности : 4:2:0
Битовая глубина : 8 бит
Тип развёртки : Прогрессивная
Метод сжатия : С потерями
Бит/(Пиксели*Кадры) : 0.222
Размер потока : 1,70 Гбайт (83%)
Библиотека кодирования : DivX 6.8.2 (UTC 2008-05-17)

Аудио
Идентификатор : 1
Формат : AC-3
Формат/Информация : Audio Coding 3
Расширение режима : CM (complete main)
Идентификатор кодека : 2000
Продолжительность : 1 ч. 51 м.
Вид битрейта : Постоянный
Битрейт : 448 Кбит/сек
Каналы : 6 каналов
Расположение каналов : Front: L C R, Side: L R, LFE
Частота : 48,0 КГц
Битовая глубина : 16 бит
Метод сжатия : С потерями
Размер потока : 358 Мбайт (17%)
Выравнивание : Разделение по промежуткам
Продолжительность промежутка : 40 мс. (1,00 видеокадр)
Время предзагрузки промежутка : 500 мс.
Показать сообщения:   
Начать новую тему   Ответить на тему    Торрент-трекер NNM-Club -> Классика кино и Старые фильмы до 90-х -> Отечественная Классика (HD*Rip/LQ, DVDRip, SATRip, VHSRip) Часовой пояс: GMT + 3
Страница 1 из 1