Классический форум-трекер
canvas not supported
Нас вместе: 4 079 087

Сладкая маленькая ложь / Sweet Little Lies / Suito ritoru raizu (2010) DVDRip


 
 
RSS
Начать новую тему   Ответить на тему    Торрент-трекер NNM-Club -> Зарубежное кино -> Азиатское кино (HD*Rip/LQ, DVDRip, SATRip, VHSRip)
Автор Сообщение
mikakost ®
Стаж: 10 лет 6 мес.
Сообщений: 389
Ratio: 80,478
Поблагодарили: 5640
100%
Откуда: Ереван
armenia.gif
Сладкая маленькая ложь / Sweet Little Lies / Suito ritoru raizu (2010) DVDRip
Год выпуска: 2010
Производство: Япония / Broadmedia Studios, Glory Productions, Hollywood Channel, Nichion, Pony Canyon Enterprises
Жанр: Драма

Описание фильма:
Три года назад Рурико и Сатоси поженились. Их жизнь идет размеренным чередом: он ежедневно ходит на работу, а она шьет игрушечных медведей, готовится к выставкам и каждый день терпеливо ждет возвращения мужа. Странная пара, которая проводит время порознь в разных комнатах и перезванивается по мобильному телефону, даже если они находятся дома. Что-то должно произойти...

Режиссер: Хитоси Язаки
Актеры: Мики Накатани, Нао Омори, Juichi Kobayashi, Чизуру Икеваки, Юко Осима, Сакура Андо, Акико Казами, Мей Курокава

Продолжительность: 01:56:59
Качество видео: DVDRip
Перевод: Одноголосый закадровый
Язык субтитров: Русский
Вид субтитров: Отдельным файлом (*.srt)



Дата мировой премьеры: 27 февраля 2010

Видео: MPEG-4 XviD, 720 x 400 (16:9), 23.976 fps, ~1330 Kb/s (0.193 bit/pixel)
Аудио#1: AC-3, 48.0 KHz, 2.0 ch, 448 Kb/s, CBR | Russian
Аудио#2: AC-3, 48.0 KHz, 2.0 ch, 448 Kb/s, CBR | Japanese
Код:

Общее
Полное имя                               : Sweet Little Lies\Sweet Little Lies.avi
Формат                                   : AVI
Формат/Информация                        : Audio Video Interleave
Размер файла                             : 1,83 Гбайт
Продолжительность                        : 1 ч. 56 м.
Общий поток                              : 2240 Кбит/сек
Программа кодирования                    : VirtualDubMod 1.5.10.2 (build 2540/release)
Библиотека кодирования                   : VirtualDubMod build 2540/release

Видео
Идентификатор                            : 0
Формат                                   : MPEG-4 Visual
Профиль формата                          : Advanced Simple@L5
Параметр BVOP формата                    : Нет
Параметр QPel формата                    : Нет
Параметр GMC формата                     : Без точки перехода
Параметр матрицы формата                 : Выборочная
Идентификатор кодека                     : XVID
Идентификатор кодека/Подсказка           : XviD
Продолжительность                        : 1 ч. 56 м.
Битрейт                                  : 1330 Кбит/сек
Ширина                                   : 720 пикселей
Высота                                   : 400 пикселей
Соотношение сторон                       : 16:9
Частота кадров                           : 23,976 кадра/сек
Цветовое пространство                    : YUV
Субдискретизация насыщенности            : 4:2:0
Битовая глубина                          : 8 бит
Тип развёртки                            : Прогрессивная
Метод сжатия                             : С потерями
Бит/(Пиксели*Кадры)                      : 0.193
Размер потока                            : 1,09 Гбайт (59%)
Библиотека кодирования                   : XviD 1.2.1 (UTC 2008-12-04)

Аудио #1
Идентификатор                            : 1
Формат                                   : AC-3
Формат/Информация                        : Audio Coding 3
Расширение режима                        : CM (complete main)
Параметр Endianness формата              : Big
Идентификатор кодека                     : 2000
Продолжительность                        : 1 ч. 56 м.
Вид битрейта                             : Постоянный
Битрейт                                  : 448 Кбит/сек
Каналы                                   : 2 канала
Расположение каналов                     : Front: L R
Частота                                  : 48,0 КГц
Битовая глубина                          : 16 бит
Метод сжатия                             : С потерями
Размер потока                            : 375 Мбайт (20%)
Выравнивание                             : Разделение по промежуткам
Продолжительность промежутка             : 42  мс. (1,00 видеокадр)
Время предзагрузки промежутка            : 500  мс.

Аудио #2
Идентификатор                            : 2
Формат                                   : AC-3
Формат/Информация                        : Audio Coding 3
Профиль формата                          : Dolby Digital
Расширение режима                        : CM (complete main)
Параметр Endianness формата              : Big
Идентификатор кодека                     : 2000
Продолжительность                        : 1 ч. 56 м.
Вид битрейта                             : Постоянный
Битрейт                                  : 448 Кбит/сек
Каналы                                   : 2 канала
Расположение каналов                     : Front: L R
Частота                                  : 48,0 КГц
Битовая глубина                          : 16 бит
Метод сжатия                             : С потерями
Размер потока                            : 375 Мбайт (20%)
Выравнивание                             : Разделение по промежуткам
Продолжительность промежутка             : 42  мс. (1,00 видеокадр)
Время предзагрузки промежутка            : 500  мс.
Скриншоты:


Время раздачи: 24/7 - круглосуточно
Реставрация от: Viсtоr
[NNM-Club.ru]_Sweet Little Lies.torrent
 Торрент: Золотая раздача  Зарегистрирован
 
Зарегистрируйтесь и скачайте торрент!
18,6 KB

Примагнититься
 Зарегистрирован:   08 Апр 2011 23:43:13
 Размер:   1,83 GB  (
 Рейтинг:   4,5 (Голосов: 14)
 Поблагодарили:   36
 Проверка:   Оформление проверено модератором 10 Апр 2011 20:05:42
Как cкачать  ·  Как раздать  ·  Правильно оформить  ·  Поднять ратио!  

_________________
Загрузка...
mikakost ®
Стаж: 10 лет 6 мес.
Сообщений: 389
Ratio: 80,478
Поблагодарили: 5640
100%
Откуда: Ереван
armenia.gif
По возможности постараюсь сидировать круглосуточно (хотя бы в первые дни)

_________________
Показать сообщения:   
Начать новую тему   Ответить на тему    Торрент-трекер NNM-Club -> Зарубежное кино -> Азиатское кино (HD*Rip/LQ, DVDRip, SATRip, VHSRip) Часовой пояс: GMT + 3
Страница 1 из 1