Классический форум-трекер
canvas not supported
Нас вместе: 4 072 958

В глубокой глотке / Inside Deep Throat (2005) DVDRIP


 
 
RSS
Начать новую тему   Ответить на тему    Торрент-трекер NNM-Club -> Документалистика и Телепередачи -> Посвящение искусству
Автор Сообщение
EugenK ®
Стаж: 11 лет 9 мес.
Сообщений: 40
Ratio: 41,112
Раздал: 2,884 TB
Поблагодарили: 906
100%
russia.gif
В глубокой глотке / Inside Deep Throat (2005) DVDRIP
Жанр: Документальный
Выпущено: HBO Documentary Films
Режиссер: Фентон Бэйли /Fenton Bailey/, Рэнди Барбато /Randy Barbato/

Актеры:
Линда Лавлэйс /Linda Lovelace/, Дик Кэветт /Dick Cavett/, Питер Барт /Peter Bart/, Тони Билл /Tony Bill/, Уэс Крэйвен /Wes Craven/, Джерард Дамиано /Gerard Damiano/

Продолжительность: 1:29
Перевод: Профессиональный

Описание:
В 1972 году порнофильм под названием "Глубокая глотка", на который было потрачено 25 тыс. долларов и 6 съемочных дней, произвел эффект разорвавшейся бомбы. Это был первый фильм категории ХХХ, вышедший в Америке в широкий прокат. Правительство США объявило ему войну, пытаясь уничтожить его. Его запретили в 23 странах. Его смотрели кинозвезды и шоумены, президенты и министры, вольные хиппи и добропорядочные домохозяйки. "Глубокая глотка" стала самым кассовым фильмом в истории кино, собрав 600 млн. долларов! Теперь, спустя 30 лет Вы сможете узнать все неизвестные и сенсационные подробности событий, окружавших провокационный дебют самого скандального фильма в истории кино.



Видеокодек: XviD
Битрейт видео: 23.976 fps; 962 Кбит/с
Размер кадра: 592x320
Качество видео: DVDRip
Аудио: 48kHz; стерео; mp3, 128 kbit/s
Код: выделить все
Общее
Полное имя                               : Inside Deep Throat.avi
Формат                                   : AVI
Формат/Информация                        : Audio Video Interleave
Размер файла                             : 700 Мбайт
Продолжительность                        : 1 ч. 29 м.
Общий поток                              : 1090 Кбит/сек
Программа кодирования                    : VirtualDubMod 1.5.10.2 (build 2540/release)
Библиотека кодирования                   : VirtualDubMod build 2540/release

Видео
Идентификатор                            : 0
Формат                                   : MPEG-4 Visual
Профиль формата                          : Advanced Simple@L5
Параметр BVOP формата                    : 2
Параметр QPel формата                    : Нет
Параметр GMC формата                     : Без точки перехода
Параметр матрицы формата                 : Default (H.263)
Режим смешивания                         : Сжатый битовый поток
Идентификатор кодека                     : XVID
Идентификатор кодека/Подсказка           : XviD
Продолжительность                        : 1 ч. 29 м.
Битрейт                                  : 953 Кбит/сек
Ширина                                   : 592 пикселя
Высота                                   : 320 пикселей
Соотношение сторон                       : 1,85:1
Частота кадров                           : 23,976 (24000/1001) кадра/сек
Цветовое пространство                    : YUV
Субдискретизация насыщенности            : 4:2:0
Битовая глубина                          : 8 бит
Тип развёртки                            : Прогрессивная
Метод сжатия                             : С потерями
Бит/(Пиксели*Кадры)                      : 0.210
Размер потока                            : 611 Мбайт (87%)
Библиотека кодирования                   : XviD 1.1.0 Beta2 (UTC 2005-04-04)

Аудио
Идентификатор                            : 1
Формат                                   : MPEG Audio
Версия формата                           : Version 1
Профиль формата                          : Layer 3
Режим                                    : Joint stereo
Расширение режима                        : MS Stereo
Идентификатор кодека                     : 55
Идентификатор кодека/Подсказка           : MP3
Продолжительность                        : 1 ч. 29 м.
Вид битрейта                             : Постоянный
Битрейт                                  : 128 Кбит/сек
Каналы                                   : 2 канала
Частота                                  : 48,0 КГц
Метод сжатия                             : С потерями
Размер потока                            : 82,2 Мбайт (12%)
Выравнивание                             : Соединение по промежуткам
Продолжительность промежутка             : 42  мс. (1,00 видеокадр)
Время предзагрузки промежутка            : 504  мс.

Время раздачи: 24/7
[NNM-Club.me]_Inside Deep Throat.avi.torrent
 Торрент: Платиновая раздача  Зарегистрирован
 
Скачать


Примагнититься
 Зарегистрирован:   17 Окт 2018 10:48:35
 Размер:   700 MB  (
 Рейтинг:   4,7 (Голосов: 35)
 Поблагодарили:   204
 Проверка:   Оформление проверено модератором 17 Окт 2018 10:50:51
Как cкачать  ·  Как раздать  ·  Правильно оформить  ·  Поднять ратио!  
ENDRA
Гость
любимый фильм Леонида Ильича ...
Ё
smart24
 
Стаж: 11 лет 4 мес.
Сообщений: 77
Ratio: 21,69
Поблагодарили: 1617
100%
EugenK возобнови закачку В глубокой глотке /Inside Deep Throat (2005) DVDRIP, плиз.
EugenK ®
Стаж: 11 лет 9 мес.
Сообщений: 40
Ratio: 41,112
Раздал: 2,884 TB
Поблагодарили: 906
100%
russia.gif
Ничем не могу помочь: у меня этого фильма больше нет.
Alias_Divas
Стаж: 12 лет 1 мес.
Сообщений: 227
Ratio: 4,531
Поблагодарили: 1483
100%
russia.gif
а непосредственно самого скандального фильма в истории кино нету?
или это попадает под запрет правил? :смущение:
Kalex
Администратор
Стаж: 11 лет 8 мес.
Сообщений: 30910
Ratio: 37,647
Поблагодарили: 13282
100%
nnm-club.gif
Alias_Divas
порно на трекере запрещено, разве что только эротика.

_________________
NNMClub и IPv6/Teredo
... если преступников недостаточно, их надо создавать. Кому нужна нация, состоящая сплошь из законопослушных граждан? Какая от нее польза? А вот издайте законы, которые нельзя ни соблюдать, ни проводить в жизнь, ни объективно трактовать, и вы получите нацию нарушителей, а значит, сможете заработать на преступлениях... /Айн Рэнд, «Атлант расправил плечи»/
Alias_Divas
Стаж: 12 лет 1 мес.
Сообщений: 227
Ratio: 4,531
Поблагодарили: 1483
100%
russia.gif
Kalex
ухожу, ухожу... (с) Вовочка
:D
Kalex
Администратор
Стаж: 11 лет 8 мес.
Сообщений: 30910
Ratio: 37,647
Поблагодарили: 13282
100%
nnm-club.gif
Alias_Divas
Сами эти фильмы к Документалистике ни малейшего отношения не имеют.
Поэтому в этих разделах эти вопросы больше не поднимаем, не предлагаем и не обсуждаем, тем более что этот раздел - не место для предложений админам. Всё подобное буду расценивать как флуд.

_________________
NNMClub и IPv6/Teredo
... если преступников недостаточно, их надо создавать. Кому нужна нация, состоящая сплошь из законопослушных граждан? Какая от нее польза? А вот издайте законы, которые нельзя ни соблюдать, ни проводить в жизнь, ни объективно трактовать, и вы получите нацию нарушителей, а значит, сможете заработать на преступлениях... /Айн Рэнд, «Атлант расправил плечи»/
alexandr7777777
Стаж: 11 лет
Сообщений: 10
Ratio: 3,447
100%
встаньте на раздачу... энибади
ingodwemonopoly
Стаж: 8 лет 5 мес.
Сообщений: 18
Ratio: 1,598
100%
Alias_Divas писал(а): Перейти к сообщению
а непосредственно самого скандального фильма в истории кино нету?
или это попадает под запрет правил? :смущение:

при небольшом навыке, находится и скачивается скандальный фильм в этих ваших интернетах.
вцелом фильм неочень, морально устарел. но любители ретро a la Tinto Brass оценят.
Vita70
Стаж: 7 лет 7 мес.
Сообщений: 1661
Ratio: 144,106
100%
russia.gif
Качну , а то умрёт раздача, если получится.
Показать сообщения:   
Начать новую тему   Ответить на тему    Торрент-трекер NNM-Club -> Документалистика и Телепередачи -> Посвящение искусству Часовой пояс: GMT + 3
Страница 1 из 1