Классический форум-трекер
canvas not supported
Нас вместе: 4 103 902

Обыкновенное чудо (1978) DVDRip


Страницы:  1, 2  След. 
 
RSS
Начать новую тему   Ответить на тему    Торрент-трекер NNM-Club -> Классика кино и Старые фильмы до 90-х -> Отечественная Классика (HD*Rip/LQ, DVDRip, SATRip, VHSRip)
Автор Сообщение
Konj ®
Стаж: 12 лет 7 мес.
Сообщений: 7
Ratio: 1,698
Поблагодарили: 575
22.22%
Обыкновенное чудо (1979) DVDRip
Год выпуска: 1979
Производство: СССР, Мосфильм при участии Гостелерадио СССР
Жанр: Мюзикл, Фэнтези, Мелодрама, Комедия

Описание:
Пришло время — волшебник женился, остепенился, занялся хозяйством. Но однажды, встретив в лесу медведя, все-таки не вытерпел: взял и превратил его в прекрасного юношу, поставив условие, что тот снова станет медведем, если его поцелует принцесса…

Режиссер: Марк Захаров
Актеры: Олег Янковский, Ирина Купченко, Евгений Леонов, Евгения Симонова, Александр Абдулов, Екатерина Васильева, Юрий Соломин, Андрей Миронов, Ерванд (Эрик) Арзуманян, Всеволод Ларионов, Нина Пушкова, Валентина Воилкова, Владимир Долинский, Андрей Леонов

Продолжительность: 02:17:38
Качество видео: DVDRip



Видеокодек: DivX 5
Битрейт видео: 2 393 Kbps
Размер кадра: 720x544
Аудиокодек: AC-3, 6 channels
Битрейт аудио: 448 Kbps
Obiknovennoje Chudo\Part 1.avi
Format : AVI
Format/Info : Audio Video Interleave
File size : 1.37 GiB
Duration : 1h 8mn
Overall bit rate : 2 848 Kbps
Writing application : VirtualDubMod 1.5.4.1 (build 2178/release)
Writing library : VirtualDubMod build 2178/release

Video
ID : 0
Format : MPEG-4 Visual
Format settings, BVOP : 1
Format settings, QPel : No
Format settings, GMC : No warppoints
Format settings, Matrix : Default (H.263)
Muxing mode : Packed bitstream
Codec ID : DX50
Codec ID/Hint : DivX 5
Duration : 1h 8mn
Bit rate : 2 393 Kbps
Width : 720 pixels
Height : 544 pixels
Display aspect ratio : 4:3
Frame rate : 25.000 fps
Color space : YUV
Chroma subsampling : 4:2:0
Bit depth : 8 bits
Scan type : Progressive
Compression mode : Lossy
Bits/(Pixel*Frame) : 0.244
Stream size : 1.15 GiB (84%)
Writing library : DivX 5.2.1 (WaffleDay) (UTC 2004-09-08)

Audio
ID : 1
Format : AC-3
Format/Info : Audio Coding 3
Mode extension : CM (complete main)
Format settings, Endianness : Big
Codec ID : 2000
Duration : 1h 8mn
Bit rate mode : Constant
Bit rate : 448 Kbps
Channel(s) : 6 channels
Channel positions : Front: L C R, Side: L R, LFE
Sampling rate : 48.0 KHz
Bit depth : 16 bits
Compression mode : Lossy
Stream size : 220 MiB (16%)
Alignment : Split accross interleaves
Interleave, duration : 96 ms (2.40 video frames)
Interleave, preload duration : 96 ms

==================================================================================
Obiknovennoje Chudo\Part 2.avi
Format : AVI
Format/Info : Audio Video Interleave
File size : 1.37 GiB
Duration : 1h 8mn
Overall bit rate : 2 841 Kbps
Writing application : VirtualDubMod 1.5.4.1 (build 2178/release)
Writing library : VirtualDubMod build 2178/release

Video
ID : 0
Format : MPEG-4 Visual
Format settings, BVOP : 1
Format settings, QPel : No
Format settings, GMC : No warppoints
Format settings, Matrix : Default (H.263)
Muxing mode : Packed bitstream
Codec ID : DX50
Codec ID/Hint : DivX 5
Duration : 1h 8mn
Bit rate : 2 386 Kbps
Width : 720 pixels
Height : 544 pixels
Display aspect ratio : 4:3
Frame rate : 25.000 fps
Color space : YUV
Chroma subsampling : 4:2:0
Bit depth : 8 bits
Scan type : Progressive
Compression mode : Lossy
Bits/(Pixel*Frame) : 0.244
Stream size : 1.15 GiB (84%)
Writing library : DivX 5.2.1 (WaffleDay) (UTC 2004-09-08)

Audio
ID : 1
Format : AC-3
Format/Info : Audio Coding 3
Mode extension : CM (complete main)
Format settings, Endianness : Big
Codec ID : 2000
Duration : 1h 8mn
Bit rate mode : Constant
Bit rate : 448 Kbps
Channel(s) : 6 channels
Channel positions : Front: L C R, Side: L R, LFE
Sampling rate : 48.0 KHz
Bit depth : 16 bits
Compression mode : Lossy
Stream size : 221 MiB (16%)
Alignment : Split accross interleaves
Interleave, duration : 96 ms (2.40 video frames)
Interleave, preload duration : 96 ms
Скриншоты:


Реставрация релиза: smaster67
Obiknovennoje Chudo.torrent
 Торрент: Платиновая раздача  Зарегистрирован
 
Скачать


Примагнититься
 Зарегистрирован:   14 Фев 2020 14:56:22
 Размер:   2,74 GB  (
 Рейтинг:   4,9 (Голосов: 180)
 Поблагодарили:   574
 Проверка:   Оформление проверено модератором 14 Фев 2020 21:54:29
Как cкачать  ·  Как раздать  ·  Правильно оформить  ·  Поднять ратио!  
kossmozz
Стаж: 13 лет 6 мес.
Сообщений: 1828
Ratio: 14,706
Поблагодарили: 3090
100%
ussr.gif
Скриншоты сделаны не совсем правильно. Они должны быть полноразмерными, но кликабельными (увеличиваться по клику).
Пример:
Исправьте пожалуйста!

_________________
Авторитарная личность.
Венерическая Мухоловка
Стаж: 12 лет 8 мес.
Сообщений: 162
Ratio: 3,541
Поблагодарили: 60
100%
russia.gif
да, этот фильм точно не нуждается в рекламе...

_________________
Не Dionaea muscipula, а Venerea muscipula, в природе не существую, смертельно ядовита
Hemulo
Стаж: 13 лет
Сообщений: 158
Ratio: 8,272
100%
Спасибо.
Это мой любимый фильм... ;)

Кстати, несколько лет назад я видел по телевидению старый чёрнобелый фильм "Обыкновенное Чудо" годов, наверное 50х. Сюжет тот-же но другие актёры и другие акценты. Но тоже обалденно интересно.

Может кто-нибудь подскажет как его найти?
grinin
Стаж: 12 лет 9 мес.
Сообщений: 14
Ratio: 1,516
22.74%
где же вы, сидеры?
aldanar
Стаж: 12 лет
Сообщений: 168
Ratio: 3,162
Поблагодарили: 109
100%
russia.gif
Так хочется сегодня посмотреть... Видно - не судьба :(( И завтра, кажется, тоже... :(
1ADITA
Стаж: 12 лет
Сообщений: 90
Ratio: 0,973
22.46%
Откуда: Херсон
ukraine.gif
Благодарю за красивый фильм!
medved2121
Стаж: 10 лет 5 мес.
Сообщений: 262
Ratio: 10,587
Поблагодарили: 14256
100%
Откуда: Ростов-на-Дону
russia.gif
grinin писал(а): link
где же вы, сидеры?
прошло ещё 2 года . а ситуация не меняется =)
Ivanhoe
Стаж: 10 лет 7 мес.
Сообщений: 23
Ratio: 1,893
Поблагодарили: 681
100%
Откуда: Иваново
ussr.gif
О Боже, а почему это в разделе Отечественные Фильмы для детей? =)
Pterry
Стаж: 11 лет 8 мес.
Сообщений: 100
Ratio: 35,996
Поблагодарили: 291
100%
russia.gif
Ivanhoe я тоже удивлен. Ну и ладно. Главное теперь сиды на месте. Спасибо!

_________________
I will always remember your smile
almikl
Куратор Детского.
Модератор Видео.
RG Всё лучшее - детям!
Uploader 500+
 

Online
Стаж: 12 лет 9 мес.
Сообщений: 4836
Ratio: 366,677
Поблагодарили: 111735
100%
Откуда: Дааалекое Подмосковье
russia.gif
Оформление отреставрировано.
Bich
Стаж: 9 лет 9 мес.
Сообщений: 833
Ratio: 4,283
Поблагодарили: 1193
32.09%
В фильме нашел ляп: 1 серия - приезд короля.
Смотрим скрин1:
[img] [/img]
А вот скрин 2:

[img] [/img]
Как видим во времена королей по глине ходили бульдозеры :))) :лол:
mclaud
Стаж: 11 лет
Сообщений: 26
Ratio: 46,258
100%
Откуда: Тюмень
russia.gif
или бронированные кареты на гусеничном ходу
serjio.tula
Стаж: 9 лет 5 мес.
Сообщений: 49
Ratio: 18,01
100%
Откуда: Россия, Тула
russia.gif
Отличный фильм, но точно не детский. Скорее это сказка для взрослых.
С удовольствием посмотрю еще не раз. Спасибо!
Deltado
Стаж: 7 лет 11 мес.
Сообщений: 263
Ratio: 11,797
100%
Откуда: отсюда
cod4.gif
Ну почему сейчас подобных фильмов не делают?Одни дешёвые поделки и подражания.Такое ощущение,что с перестройкой закончился талант у наших режиссеров и сценаристов...

_________________
Больше всего обычно врут перед выборами,сексом и после рыбалки.
Показать сообщения:   
Начать новую тему   Ответить на тему    Торрент-трекер NNM-Club -> Классика кино и Старые фильмы до 90-х -> Отечественная Классика (HD*Rip/LQ, DVDRip, SATRip, VHSRip) Часовой пояс: GMT + 3
Страницы:  1, 2  След.
Страница 1 из 2