Классический форум-трекер
canvas not supported
Нас вместе: 4 093 500

Journal Intime - Joue Jimi Hendrix Lips on Fire (2011) [FLAC|Lossless]<Jazz, Free Jazz>


 
 
RSS
Начать новую тему   Ответить на тему    Торрент-трекер NNM-Club -> Архив торрентов -> Архив Музыки
Автор Сообщение
Doshik ®
Стаж: 9 лет 4 мес.
Сообщений: 1688
Ratio: 43,747
Поблагодарили: 92660
100%
barbados.gif
Journal Intime - Joue Jimi Hendrix Lips on Fire (2011)
Год: 2011
Жанр: Jazz, Free Jazz
Продолжительность: 00:57:12
Label: Ouie
Catalog #: LBL CD 008

Кодек: FLAC
Битрейт: Lossless

Трек лист:
01. Foxy People (2:47)
02. Lover Man (2:55)
03. Viens ! (4:11)
04. If 6 was 9 (2:41)
05. Angel (3:23)
06. Odysseus Praeludium (2:51)
07. Lips on Fire (1:18)
08. Hey Baby (5:35)
09. All Along The Watchtower (5:30)
10. Little Blowing (4:21)
11. 1983... (A Merman I Should Turn To Be) (12:49)
12. Villanova Junction (8:52)
Код:

Exact Audio Copy V1.0 beta 1 from 15. November 2010

EAC extraction logfile from 12. May 2011, 8:37

Journal Intime / Lips on Fire

Used drive  : PLEXTOR DVDR   PX-860A   Adapter: 0  ID: 0

Read mode               : Secure
Utilize accurate stream : Yes
Defeat audio cache      : Yes
Make use of C2 pointers : No

Read offset correction                      : 96
Overread into Lead-In and Lead-Out          : No
Fill up missing offset samples with silence : Yes
Delete leading and trailing silent blocks   : No
Null samples used in CRC calculations       : Yes
Used interface                              : Native Win32 interface for Win NT & 2000
Gap handling                                : Appended to previous track

Used output format              : User Defined Encoder
Selected bitrate                : 1024 kBit/s
Quality                         : High
Add ID3 tag                     : No
Command line compressor         : C:\Program Files\Exact Audio Copy\flac.exe
Additional command line options : -8 -V -T "ARTIST=%a" -T "TITLE=%t" -T "ALBUM=%g" -T "DATE=%y" -T "TRACKNUMBER=%n" -T "TOTALTRACKS=%x" -T "GENRE=%m" -T "ALBUM ARTIST=%v" -T "ALBUMARTIST=%v" -T "COMMENT=EAC V1.0 beta 1, Secure Mode, Test & Copy, AccurateRip

TOC of the extracted CD

     Track |   Start  |  Length  | Start sector | End sector
    ---------------------------------------------------------
        1  |  0:00.00 |  2:46.68 |         0    |    12517
        2  |  2:46.68 |  2:55.15 |     12518    |    25657
        3  |  5:42.08 |  4:10.68 |     25658    |    44475
        4  |  9:53.01 |  2:40.46 |     44476    |    56521
        5  | 12:33.47 |  3:23.34 |     56522    |    71780
        6  | 15:57.06 |  2:50.49 |     71781    |    84579
        7  | 18:47.55 |  1:18.19 |     84580    |    90448
        8  | 20:05.74 |  5:34.59 |     90449    |   115557
        9  | 25:40.58 |  5:29.66 |    115558    |   140298
       10  | 31:10.49 |  4:20.42 |    140299    |   159840
       11  | 35:31.16 | 12:49.26 |    159841    |   217541
       12  | 48:20.42 |  8:51.69 |    217542    |   257435

Track  1

     Filename S:\DL\Journal Intime - Lips on Fire (2010) [FLAC]\01 - Foxy People.wav

     Pre-gap length  0:00:02.00

     Peak level 100.0 %
     Extraction speed 4.0 X
     Track quality 100.0 %
     Test CRC A5298B2D
     Copy CRC A5298B2D
     Track not present in AccurateRip database
     Copy OK

Track  2

     Filename S:\DL\Journal Intime - Lips on Fire (2010) [FLAC]\02 - Lover Man.wav

     Pre-gap length  0:00:00.32

     Peak level 100.0 %
     Extraction speed 4.3 X
     Track quality 100.0 %
     Test CRC 03287188
     Copy CRC 03287188
     Track not present in AccurateRip database
     Copy OK

Track  3

     Filename S:\DL\Journal Intime - Lips on Fire (2010) [FLAC]\03 - Viens !.wav

     Peak level 100.0 %
     Extraction speed 5.0 X
     Track quality 100.0 %
     Test CRC 81843A71
     Copy CRC 81843A71
     Track not present in AccurateRip database
     Copy OK

Track  4

     Filename S:\DL\Journal Intime - Lips on Fire (2010) [FLAC]\04 - If 6 was 9.wav

     Peak level 100.0 %
     Extraction speed 5.0 X
     Track quality 100.0 %
     Test CRC 9BB8B5A3
     Copy CRC 9BB8B5A3
     Track not present in AccurateRip database
     Copy OK

Track  5

     Filename S:\DL\Journal Intime - Lips on Fire (2010) [FLAC]\05 - Angel.wav

     Pre-gap length  0:00:00.41

     Peak level 100.0 %
     Extraction speed 5.5 X
     Track quality 100.0 %
     Test CRC B8BB6792
     Copy CRC B8BB6792
     Track not present in AccurateRip database
     Copy OK

Track  6

     Filename S:\DL\Journal Intime - Lips on Fire (2010) [FLAC]\06 - Odysseus Praeludium.wav

     Pre-gap length  0:00:01.67

     Peak level 100.0 %
     Extraction speed 4.7 X
     Track quality 99.9 %
     Test CRC 9A5B8A11
     Copy CRC 9A5B8A11
     Track not present in AccurateRip database
     Copy OK

Track  7

     Filename S:\DL\Journal Intime - Lips on Fire (2010) [FLAC]\07 - Lips on Fire.wav

     Peak level 100.0 %
     Extraction speed 4.6 X
     Track quality 100.0 %
     Test CRC 8AC13FA6
     Copy CRC 8AC13FA6
     Track not present in AccurateRip database
     Copy OK

Track  8

     Filename S:\DL\Journal Intime - Lips on Fire (2010) [FLAC]\08 - Hey Baby.wav

     Peak level 100.0 %
     Extraction speed 6.6 X
     Track quality 100.0 %
     Test CRC F984D433
     Copy CRC F984D433
     Track not present in AccurateRip database
     Copy OK

Track  9

     Filename S:\DL\Journal Intime - Lips on Fire (2010) [FLAC]\09 - All Along The Watchtower.wav

     Peak level 100.0 %
     Extraction speed 6.9 X
     Track quality 100.0 %
     Test CRC 92836D3A
     Copy CRC 92836D3A
     Track not present in AccurateRip database
     Copy OK

Track 10

     Filename S:\DL\Journal Intime - Lips on Fire (2010) [FLAC]\10 - Little Blowing.wav

     Peak level 100.0 %
     Extraction speed 7.1 X
     Track quality 100.0 %
     Test CRC FE90E0FD
     Copy CRC FE90E0FD
     Track not present in AccurateRip database
     Copy OK

Track 11

     Filename S:\DL\Journal Intime - Lips on Fire (2010) [FLAC]\11 - 1983... (A Merman I Should Turn To Be).wav

     Pre-gap length  0:00:01.15

     Peak level 100.0 %
     Extraction speed 8.3 X
     Track quality 100.0 %
     Test CRC 3BD52419
     Copy CRC 3BD52419
     Track not present in AccurateRip database
     Copy OK

Track 12

     Filename S:\DL\Journal Intime - Lips on Fire (2010) [FLAC]\12 - Villanova Junction.wav

     Pre-gap length  0:00:00.37

     Peak level 100.0 %
     Extraction speed 8.8 X
     Track quality 100.0 %
     Test CRC B69D94DE
     Copy CRC B69D94DE
     Track not present in AccurateRip database
     Copy OK

None of the tracks are present in the AccurateRip database

No errors occurred

End of status report

==== Log checksum 723746D68046A1B3EB1E2FBC3FB1C5CBC013F290A776B4358B9ED0766A0A05ED ====
Код:

-----------------------

DON'T MODIFY THIS FILE

-----------------------

PERFORMER: auCDtect Task Manager, ver. 1.5.1RC4 build 1.5.1.5
Copyright (c) 2008-2010 y-soft. All rights reserved
http://y-soft.org

ANALYZER: auCDtect: CD records authenticity detector, version 0.8.2
Copyright (c) 2004 Oleg Berngardt. All rights reserved.
Copyright (c) 2004 Alexander Djourik. All rights reserved.

FILE: 12 - Villanova Junction.flac
  Size: 33199755 Hash: 119D3008224B9DE5D3FE66F61B819A58 Accuracy: -m0
  Conclusion: CDDA 99%
  Signature: 95FB253145D0D8B6FCC92286DBCA823FF89B5A39
FILE: 11 - 1983... (A Merman I Should Turn To Be).flac
  Size: 78547427 Hash: 981584647C0120ACE28BD72629754691 Accuracy: -m0
  Conclusion: CDDA 100%
  Signature: 2898BAD9BEA4C51A5C041EE1B5705E69BDA6B58C
FILE: 10 - Little Blowing.flac
  Size: 20183017 Hash: 7EFD94FE2613BCD0CB2E2A2541E744D3 Accuracy: -m0
  Conclusion: CDDA 100%
  Signature: 7EEC95501E20E8BD28B77A3D2B32DBF1183600DF
FILE: 09 - All Along The Watchtower.flac
  Size: 32247335 Hash: B3753D19334CDBC684863A0DF4E6F292 Accuracy: -m0
  Conclusion: CDDA 99%
  Signature: FF042678B586F6B7DB7B0A1211B78B50BB7277D6
FILE: 08 - Hey Baby.flac
  Size: 25477572 Hash: 1E8634B5D983518C1885ABC5C583C5B1 Accuracy: -m0
  Conclusion: CDDA 100%
  Signature: 74D5AEDFB27B7C8C3EAE57A6F3B163A38196A826
FILE: 07 - Lips on Fire.flac
  Size: 6382256 Hash: 520577E03ACB5E06DC800C562CB1D4F5 Accuracy: -m0
  Conclusion: CDDA 100%
  Signature: 87641C362405BF4884C254E1D8B31206F9A70C12
FILE: 06 - Odysseus Praeludium.flac
  Size: 14109863 Hash: 0BD5C03F5741AA6C22878715A4C27EE3 Accuracy: -m0
  Conclusion: CDDA 100%
  Signature: 4FD488EF6D51A6F2244F1806FF9FC4B83E5F19CC
FILE: 05 - Angel.flac
  Size: 16936704 Hash: 1A1B43D67D1B31172D9D407A7CFDAF13 Accuracy: -m0
  Conclusion: CDDA 100%
  Signature: E503E927EDC659E8156E0B3F329CB85D9648FB7A
FILE: 04 - If 6 was 9.flac
  Size: 13745120 Hash: 298341CB19C6A4ACF88FEF03E3A0ACD9 Accuracy: -m0
  Conclusion: CDDA 100%
  Signature: 4ED975C8F702994C6CA027B349D68C25F0B03257
FILE: 03 - Viens !.flac
  Size: 19527094 Hash: 413EE758CB043F014098848917FA465F Accuracy: -m0
  Conclusion: CDDA 100%
  Signature: F28A9194880B10C67782F9AA9EBABB44DAEB20C7
FILE: 02 - Lover Man.flac
  Size: 17922037 Hash: E6C07D6CF7731C8AAFB07720DFC0AEE3 Accuracy: -m0
  Conclusion: CDDA 100%
  Signature: 3602D7577B6F5E3A1DDB752ACD3C1345D04FC434
FILE: 01 - Foxy People.flac
  Size: 14521881 Hash: 4D8772A692C7BEF89FDD4123AA6357F1 Accuracy: -m0
  Conclusion: CDDA 99%
  Signature: 394D0F562DD55F66C69499DA0F319BE070D47C32
Время раздачи: 24/7
Journal Intime - Joue Jimi Hendrix Lips on Fire[nnm-club.ru].torrent
 Торрент: Золотая раздача  Зарегистрирован
 
Зарегистрируйтесь и скачайте торрент!
13,2 KB

 Зарегистрирован:   24 Май 2011 11:05:27
 Размер:   303 MB  (
 Рейтинг:    (Голосов: 7)
 Поблагодарили:   18
 Проверка:   Оформление проверено модератором 24 Май 2011 22:09:09
Как cкачать  ·  Как раздать  ·  Правильно оформить  ·  Поднять ратио!  
Топик был перенесен из форума Lossless в форум Архив Музыки


Beijing65
Показать сообщения:   
Начать новую тему   Ответить на тему    Торрент-трекер NNM-Club -> Архив торрентов -> Архив Музыки Часовой пояс: GMT + 3
Страница 1 из 1