Классический форум-трекер
canvas not supported
Нас вместе: 4 094 690

Тёрнер и Хуч / Turner & Hooch (1989) HDTVRip [H.264/1080p]


 
 
RSS
Начать новую тему   Ответить на тему    Торрент-трекер NNM-Club -> Зарубежное кино -> Зарубежные Фильмы (HD, UHD-LQ)
Автор Сообщение
SKVSM ®
Покровитель талантов
Uploader 100+
 
Стаж: 9 лет 4 мес.
Сообщений: 1083
Ratio: 297,918
Поблагодарили: 21456
100%
nnm-club.gif
Тёрнер и Хуч / Turner & Hooch (1989) HDTVRip [1080p]
«Собака - худший враг человека»
Производство: США / Touchstone Pictures
Жанр: Триллер, Драма, Комедия, Криминал

Режиссер: Роджер Споттисвуд
Актеры: Том Хэнкс, Мэр Уиннингхэм, Крэйг Т. Нельсон, Реджинальд ВелДжонсон, Скотт Полин, Дж. К. Куин, Джон МакИнтайр, Дэвид Нелл, Эбби Роу Смит, Кевин Сканнелл, Джоэл Бэйли, Мэри МакКаскер, Эрни Лайвли, Клайд Кусацу

Описание:
Профессиональный сыщик Скотт Тернер ненавидит беспорядок. В его жизни все заранее спланировано и предсказуемо. Хуч — самый неспокойный, самый невоспитанный и абсолютно неподдающийся дрессировке пес. Не повезет тому несчастному хозяину, к которому он попадет. Тернер слишком поздно понял, кого впустил в свой дом. Но шумные ссоры ни к чему не привели. Возможно, лучший способ одолеть своего врага, это подружиться с ним.


Возраст: 12+ (зрителям, достигшим 12 лет)
Рейтинг MPAA: PG-13 (детям до 13 лет просмотр нежелателен)


Продолжительность: 01:35:25
Качество видео: HDTVRip 1080p
Перевод: Многоголосый закадровый (НТВ+)
Субтитры: Отсутствуют

Видеокодек: MPEG-4 AVC/H.264
Битрейт видео: ~9561 Кбит/с
Размер кадра: 1920x1040
Аудио:
#1: AC3, 6 ch, 384 Кбит/с - Русский
#2: AC3, 6 ch, 384 Кбит/с - Английский
Код: выделить все
General
Unique ID                        : 240987350772606259319398383864527512424 (0xB54C79BAD62FCAEDBC1E0811A8E4E368)
Complete name                     Turner.and.Hooch.(1989)[1080p]HDTVRip.mkv
Format                           : Matroska
File size                        : 6.89 GiB
Duration                         : 1h 35mn
Overall bit rate                 : 10.3 Mbps
Encoded date                     : UTC 2011-05-25 19:36:45
Writing application              : mkvmerge v4.2.0 ('No Talking') сборка от Jul 28 2010 18:38:23
Writing library                  : libebml v1.0.0 + libmatroska v1.0.0

Video
ID                               : 1
Format                           : AVC
Format/Info                      : Advanced Video Codec
Format profile                   : High@L4.1
Format settings, CABAC           : Yes
Format settings, ReFrames        : 4 frames
Muxing mode                      : Header stripping
Codec ID                         : V_MPEG4/ISO/AVC
Duration                         : 1h 35mn
Bit rate                         : 9 561 Kbps
Width                            : 1 920 pixels
Height                           : 1 040 pixels
Display aspect ratio             : 16:9
Frame rate                       : 25.000 fps
Color space                      : YUV
Chroma subsampling               : 4:2:0
Bit depth                        : 8 bits
Scan type                        : Progressive
Bits/(Pixel*Frame)               : 0.192
Stream size                      : 6.24 GiB (91%)
Writing library                  : x264 core 92 r1510 33d382a
Encoding settings                : cabac=1 / ref=4 / deblock=1:-3:-3 / analyse=0x3:0x113 / me=umh / subme=10 / psy=1 / psy_rd=1.00:0.20 / mixed_ref=1 / me_range=32 / chroma_me=1 / trellis=2 / 8x8dct=1 / cqm=0 / deadzone=21,11 / fast_pskip=0 / chroma_qp_offset=-3 / threads=6 / sliced_threads=0 / nr=0 / decimate=1 / interlaced=0 / constrained_intra=0 / bframes=3 / b_pyramid=2 / b_adapt=2 / b_bias=0 / direct=3 / wpredb=1 / wpredp=2 / keyint=250 / keyint_min=25 / scenecut=40 / intra_refresh=0 / rc_lookahead=60 / rc=2pass / mbtree=1 / bitrate=9561 / ratetol=1.0 / qcomp=0.60 / qpmin=10 / qpmax=51 / qpstep=4 / cplxblur=20.0 / qblur=0.5 / vbv_maxrate=50000 / vbv_bufsize=50000 / ip_ratio=1.40 / aq=1:1.00 / nal_hrd=none
Language                         : English

Audio #1
ID                               : 2
Format                           : AC-3
Format/Info                      : Audio Coding 3
Mode extension                   : CM (complete main)
Muxing mode                      : Header stripping
Codec ID                         : A_AC3
Duration                         : 1h 35mn
Bit rate mode                    : Constant
Bit rate                         : 384 Kbps
Channel(s)                       : 6 channels
Channel positions                : Front: L C R, Side: L R, LFE
Sampling rate                    : 48.0 KHz
Bit depth                        : 16 bits
Compression mode                 : Lossy
Stream size                      : 262 MiB (4%)
Language                         : Russian

Audio #2
ID                               : 3
Format                           : AC-3
Format/Info                      : Audio Coding 3
Mode extension                   : CM (complete main)
Muxing mode                      : Header stripping
Codec ID                         : A_AC3
Duration                         : 1h 35mn
Bit rate mode                    : Constant
Bit rate                         : 384 Kbps
Channel(s)                       : 6 channels
Channel positions                : Front: L C R, Side: L R, LFE
Sampling rate                    : 48.0 KHz
Bit depth                        : 16 bits
Compression mode                 : Lossy
Stream size                      : 262 MiB (4%)
Language                         : English

Menu
00:00:00.000                     : :Chapter 01
00:09:52.320                     : :Chapter 02
00:22:24.560                     : :Chapter 03
00:30:56.120                     : :Chapter 04
00:38:00.400                     : :Chapter 05
00:46:24.320                     : :Chapter 06
00:52:32.040                     : :Chapter 07
01:00:48.320                     : :Chapter 08
01:07:44.440                     : :Chapter 09
01:14:56.080                     : :Chapter 10
01:21:52.040                     : :Chapter 11
01:32:17.040                     : :Chapter 12
Скриншоты:


Все одноименные релизы в Клубе
Время раздачи: 24/7 - круглосуточно
[NNM-Club.ru]_ Turner_and_Hooch_(1989)_[1080p]HDTVRip.mkv.torrent
 Торрент: Платиновая раздача  Зарегистрирован
 
Скачать


Примагнититься
 Зарегистрирован:   19 Дек 2019 07:36:32
 Размер:   6,89 GB  (
 Рейтинг:   4,9 (Голосов: 80)
 Поблагодарили:   272
 Проверка:   Оформление проверено модератором 19 Дек 2019 17:25:07
Как cкачать  ·  Как раздать  ·  Правильно оформить  ·  Поднять ратио!  
ZeFiRlol
Стаж: 10 лет 2 мес.
Сообщений: 206
Ratio: 1,158
100%
russia.gif
Вовремя выложили, спасибо ))
SKVSM ®
Покровитель талантов
Uploader 100+
 
Стаж: 9 лет 4 мес.
Сообщений: 1083
Ratio: 297,918
Поблагодарили: 21456
100%
nnm-club.gif
ZeFiRlol писал(а): Перейти к сообщению
Вовремя выложили, спасибо ))
не за что
SKVSM ®
Покровитель талантов
Uploader 100+
 
Стаж: 9 лет 4 мес.
Сообщений: 1083
Ratio: 297,918
Поблагодарили: 21456
100%
nnm-club.gif
advancedweapon
Стаж: 5 лет 3 мес.
Сообщений: 116
Ratio: 2,578
Раздал: 873 GB
Поблагодарили: 145
100%
ukraine.gif
при русской озвучке попискивает немного, но за сюжет и за качество 5

_________________
ADAPT OR PERISH, NOW AS EVER, IS NATURE'S INEXORABLE IMPERATIVE .
NorthOn
 
Админ
Стаж: 13 лет 6 мес.
Сообщений: 13318
Ratio: 1096,266
Поблагодарили: 14453
100%
nnm-club.gif
Торрент обновлен в рамках акции Включаем DHT в древних раздачах
Теперь вам нужно его скачать и открыть в торрент-клиенте, указав в качестве места сохранения раздаваемый файл или папку.

_________________
Либо я найду путь, либо проложу его...
Показать сообщения:   
Начать новую тему   Ответить на тему    Торрент-трекер NNM-Club -> Зарубежное кино -> Зарубежные Фильмы (HD, UHD-LQ) Часовой пояс: GMT + 3
Страница 1 из 1