Классический форум-трекер
canvas not supported
Нас вместе: 4 079 162

Гномео и Джульетта / Gnomeo & Juliet (2011) HDRip (700 MB) [Лицензия]


 
 
RSS
Начать новую тему   Ответить на тему    Торрент-трекер NNM-Club -> Мультфильмы -> Зарубежные Мультфильмы для детей
Автор Сообщение
aleks741031 ®
Стаж: 9 лет 5 мес.
Сообщений: 1171
Ratio: 49,329
Раздал: 5,732 TB
Поблагодарили: 76620
100%
Откуда: Город достойный поклонения.
russia.gif
Гномео и Джульетта / Gnomeo & Juliet (2011) HDRip (700 MB)
Русское название: Гномео и Джульетта
Оригинальное название: Gnomeo & Juliet
Год выпуска: 2011
Жанр: Детский, Приключения, Комедия
Перевод: Полное дублирование [Лицензия]

Дата мировой премьеры: 23 января 2011
Дата российской премьеры: 17 февраля 2011, «West»
Дата выхода DVD/Blu-Ray релиза: 24 мая 2011, «West Video»



Режиссер: Келли Эсбёри

Персонажи: Гномео и Джульетта
В ролях: Эмили Блант, Джеймс МакЭвой, Майкл Кейн, Мэгги Смит, Патрик Стюарт, Джули Уолтерс, Джим Каммингс, Стефен Мерчант, Мэтт Лукас

Описание фильма:
Гномы тоже имею право на любовь, право на трагедию. Новая вариация бессмертной пьесы Уильяма Шекспира, повествующая о двух влюбленных, из враждующих кланов садовых и домашних гномов. Веселая интерпретация пьесы Уильяма Шекспира, в которой противоборствуют семьи садовых гномов и гномов домашних.

Продолжительность: 01:23:31
Качество видео: HDRip

Видеокодек: Xvid
Битрейт видео: ~1031 kb/s
Размер кадра: 624x336
Аудиокодек: MP3
Битрейт аудио: 128 kb/s
General
Complete name : F:\\Gnomeo.i.Julietta.2011.D.HDRip.700MB_.avi
Format : AVI
Format/Info : Audio Video Interleave
File size : 700 MiB
Duration : 1h 23mn
Overall bit rate : 1 168 Kbps
Writing application : VirtualDubMod 1.5.4.1 (build 2178/release)
Writing library : VirtualDubMod build 2178/release

Video
ID : 0
Format : MPEG-4 Visual
Format profile : Advanced Simple@L5
Format settings, BVOP : 2
Format settings, QPel : No
Format settings, GMC : No warppoints
Format settings, Matrix : Custom
Codec ID : XVID
Codec ID/Hint : XviD
Duration : 1h 23mn
Bit rate : 1 031 Kbps
Width : 624 pixels
Height : 336 pixels
Display aspect ratio : 1.857
Frame rate : 23.976 fps
Color space : YUV
Chroma subsampling : 4:2:0
Bit depth : 8 bits
Scan type : Progressive
Compression mode : Lossy
Bits/(Pixel*Frame) : 0.205
Stream size : 618 MiB (88%)
Writing library : XviD 58

Audio
ID : 1
Format : MPEG Audio
Format version : Version 1
Format profile : Layer 3
Codec ID : 55
Codec ID/Hint : MP3
Duration : 1h 23mn
Bit rate mode : Constant
Bit rate : 128 Kbps
Channel(s) : 2 channels
Sampling rate : 48.0 KHz
Compression mode : Lossy
Stream size : 76.8 MiB (11%)
Alignment : Aligned on interleaves
Interleave, duration : 42 ms (1.00 video frame)
Interleave, preload duration : 504 ms
Writing library : LAME3.98r
Encoding settings : -m s -V 4 -q 7 -lowpass 17 -b 128
Скриншоты:


Время раздачи: Раздача ведется до появления первых 10 сидов.

[NNM-Club.ru]_Gnomeo.i.Julietta.2011.D.HDRip.700MB_.avi.torrent
 Торрент: Золотая раздача  Зарегистрирован
 
Зарегистрируйтесь и скачайте торрент!
13,9 KB

Примагнититься
 Зарегистрирован:   26 Май 2011 23:40:11
 Размер:   700 MB  (
 Рейтинг:   4,8 (Голосов: 53)
 Поблагодарили:   207
 Проверка:   Оформление проверено модератором 27 Май 2011 07:13:01
Как cкачать  ·  Как раздать  ·  Правильно оформить  ·  Поднять ратио!  

_________________
JEROM222
Стаж: 9 лет 8 мес.
Сообщений: 121
Ratio: 2,9
61.72%
спасибо :супер!:
Asmolov
Стаж: 9 лет 7 мес.
Сообщений: 27
Ratio: 4,564
100%
ukraine.gif
пасибки!!!!!
Показать сообщения:   
Начать новую тему   Ответить на тему    Торрент-трекер NNM-Club -> Мультфильмы -> Зарубежные Мультфильмы для детей Часовой пояс: GMT + 3
Страница 1 из 1