Классический форум-трекер
canvas not supported
Нас вместе: 4 079 498

Rose Laurens - Africa (1988) [FLAC|Lossless]<Disco>


 
 
RSS
Начать новую тему   Ответить на тему    Торрент-трекер NNM-Club -> Pop -> Disco, Italo-Disco, Euro-Disco, Hi-NRG (Lossless)
Автор Сообщение
Mozart777888 ®
 
Стаж: 10 лет
Сообщений: 187
Ratio: 10,331
Раздал: 15,68 TB
Поблагодарили: 3256
100%
Откуда: Самара
russia.gif
Rose Laurens - Africa (1988)
Год: 1988
Жанр: Disco
Продолжительность: 00:38:30

Кодек: FLAC
Битрейт: Lossless

Трек лист:
01. La Difference 3:48
02. Deraisonnable 3:51
03. Conversation 3:42
04. Bateau Paume 3:39
05. Le Roi Fou 4:00
06. Africa 5:01
07. Le Coeur Chagrin 3:49
08. J'Veux Donner 3:20
09. Le Magicien D'Oz 3:34
10. Mon Pere 3:46
Сканы присутствуют.
Код:

Exact Audio Copy V0.99 prebeta 5 from 4. May 2009

Отчёт EAC об извлечении, выполненном 4. ноября 2009, 12:12

Rose Laurens / Africa

Дисковод: Optiarc DVD RW AD-5200A   Adapter: 0  ID: 0

Режим чтения                 : Достоверность
Использование точного потока : Да
Отключение кэша аудио        : Да
Использование указателей C2  : Нет

Коррекция смещения при чтении                     : 48
Способность читать области Lead-in и Lead-out     : Нет
Заполнение пропущенных сэмплов тишиной            : Да
Удаление блоков с тишиной в начале и конце        : Нет
При вычислениях CRC использовались нулевые сэмплы : Да
Интерфейс                                         : Установленный внешний ASPI-интерфейс

Выходной формат : Внутренние WAV-операции
Формат сэмплов  : 44.100 Гц; 16 бит; стерео

TOC извлечённого CD

     Трек |   Старт  | Длительность | Начальный сектор | Конечный сектор
    ---------------------------------------------------------------------
       1  |  0:00.33 |    3:48.10   |          33      |      17142
       2  |  3:48.43 |    3:51.30   |       17143      |      34497
       3  |  7:39.73 |    3:41.60   |       34498      |      51132
       4  | 11:21.58 |    3:38.55   |       51133      |      67537
       5  | 15:00.38 |    3:59.72   |       67538      |      85534
       6  | 19:00.35 |    5:01.08   |       85535      |     108117
       7  | 24:01.43 |    3:49.37   |      108118      |     125329
       8  | 27:51.05 |    3:19.55   |      125330      |     140309
       9  | 31:10.60 |    3:33.55   |      140310      |     156339
      10  | 34:44.40 |    3:46.20   |      156340      |     173309

Характеристики диапазона извлечения и сообщения об ошибках

Выбранный диапазон

     Имя файла E:\Rose Laurens - Africa\Rose Laurens - Africa.wav

     Пиковый уровень 100.0 %
     Качество диапазона 100.0 %
     CRC теста 0BE32D0F
     CRC копии 0BE32D0F
     Копирование... OK

Ошибок не произошло

AccurateRip: сводка

Трек  1  точность не определена (достоверность 1)  [EA251037], AccurateRip вернул [8166685D]
Трек  2  точность не определена (достоверность 1)  [4292A55B], AccurateRip вернул [8C71C8D9]
Трек  3  точность не определена (достоверность 1)  [F054E902], AccurateRip вернул [45AB8BCE]
Трек  4  точность не определена (достоверность 1)  [18C66CA5], AccurateRip вернул [72DAA433]
Трек  5  точность не определена (достоверность 1)  [5F77B5E8], AccurateRip вернул [C4925ECD]
Трек  6  точность не определена (достоверность 1)  [3B731122], AccurateRip вернул [53D699EC]
Трек  7  точность не определена (достоверность 1)  [D5E5078E], AccurateRip вернул [EB3D1C3B]
Трек  8  точность не определена (достоверность 1)  [F99CBC6C], AccurateRip вернул [358DE16E]
Трек  9  точность не определена (достоверность 1)  [B04ED6D2], AccurateRip вернул [BF2B85AA]
Трек 10  точность не определена (достоверность 1)  [EFCE8F6E], AccurateRip вернул [619BDBDE]

Ни один трек не прошёл проверки на точность
В вашей базе может быть иной вариант штамповки диска

Конец отчёта
Код:

-----------------------

DON'T MODIFY THIS FILE

-----------------------

PERFORMER: auCDtect Task Manager, ver. 1.5.1RC4 build 1.5.1.5
Copyright (c) 2008-2010 y-soft. All rights reserved
http://y-soft.org

ANALYZER: auCDtect: CD records authenticity detector, version 0.8.2
Copyright (c) 2004 Oleg Berngardt. All rights reserved.
Copyright (c) 2004 Alexander Djourik. All rights reserved.

FILE: Rose Laurens - Africa.flac
  Size: 232542873 Hash: 33E16676F1A18612860E2C71C67FFECF Accuracy: -m0
  Conclusion: CDDA 100%
  Signature: DB6C3912EFD84A85232BCF3EB31F13090E7FC6D8
Время раздачи: С 18:00 до 23:00
[NNM-Club.ru]_Rose Laurens - Africa.torrent
 Торрент: Платиновая раздача  Зарегистрирован
 
Скачать


 Зарегистрирован:   28 Май 2011 20:48:38
 Размер:   288 MB  (
 Рейтинг:   4,3 (Голосов: 12)
 Поблагодарили:   31
 Проверка:   Оформление проверено модератором 29 Май 2011 04:38:14
Как cкачать  ·  Как раздать  ·  Правильно оформить  ·  Поднять ратио!  
Показать сообщения:   
Начать новую тему   Ответить на тему    Торрент-трекер NNM-Club -> Pop -> Disco, Italo-Disco, Euro-Disco, Hi-NRG (Lossless) Часовой пояс: GMT + 3
Страница 1 из 1