Классический форум-трекер
canvas not supported
Нас вместе: 4 088 130

Битва за контракт JSF: Boeing X-32 vs. Lockheed X-35 / Battle Of The X-Planes (2003) DVDRip


 
 
RSS
Начать новую тему   Ответить на тему    Торрент-трекер NNM-Club -> Документалистика и Телепередачи -> Авиация
Автор Сообщение
buraninfo ®
Стаж: 11 лет
Сообщений: 170
Ratio: 2,681
Поблагодарили: 3535
100%
Битва за контракт JSF: Boeing X-32 vs. Lockheed X-35 / Battle Of The X-Planes (2003) DVDRip

Жанр: Документальный
Описание фильма:
Битва за многомиллиардный контракт на разработку прототипов и поставку, возможно, последнего пилотируемого истребителя для ВВС США - Joint Strike Fighter (Единого Ударного Истребителя), развернулась на рубеже веков между компаниями Локхид и Боинг. Двухчасовой фильм подробно рассказывает историю проекта JSF от его зарождения до объявления победителей в конкурсе прототипов.
Режиссер: Michael Jorgensen
Продолжительность: 01:55:26
Видеокодек: DivX 5
Битрейт видео: 29.97 fps 700 кб/с
Размер кадра: 448 x 256
Качество видео: DVDRip
Аудиокодек: MP3
Битрейт аудио: 48000Hz stereo 132 кб/с
Перевод: Оригинальный
Общее
Полное имя : I:\Battle Of The X-Planes.avi
Формат : AVI
Формат/Информация : Audio Video Interleave
Размер файла : 699 Мбайт
Продолжительность : 1 ч. 55 м.
Режим общего битрейта : Переменный
Общий поток : 847 Кбит/сек
Программа кодирования : VirtualDubMod 1.5.4.1 (build 2178/release)
Библиотека кодирования : VirtualDubMod build 2178/release

Видео
Идентификатор : 0
Формат : MPEG-4 Visual
Параметр BVOP формата : 1
Параметр QPel формата : Нет
Параметр GMC формата : Без точки перехода
Параметр матрицы формата : Default (H.263)
Режим смешивания : Сжатый битовый поток
Идентификатор кодека : DX50
Идентификатор кодека/Подсказка : DivX 5
Продолжительность : 1 ч. 55 м.
Битрейт : 701 Кбит/сек
Ширина : 448 пикселей
Высота : 256 пикселей
Соотношение сторон : 16:9
Частота кадров : 29,970 кадров/сек
Цветовое пространство : YUV
Субдискретизация насыщенности : 4:2:0
Битовая глубина : 8 бит
Тип развёртки : Прогрессивная
Метод сжатия : С потерями
Бит/(Пиксели*Кадры) : 0.204
Размер потока : 579 Мбайт (83%)
Библиотека кодирования : DivX 5.1.1 (Maupiti) (UTC 2003-11-19)

Аудио
Идентификатор : 1
Формат : MPEG Audio
Версия формата : Version 1
Профиль формата : Layer 3
Режим : Joint stereo
Расширение режима : MS Stereo
Идентификатор кодека : 55
Идентификатор кодека/Подсказка : MP3
Продолжительность : 1 ч. 55 м.
Вид битрейта : Переменный
Битрейт : 128 Кбит/сек
Каналы : 2 канала
Частота : 48,0 КГц
Метод сжатия : С потерями
Размер потока : 109 Мбайт (16%)
Выравнивание : Соединение по промежуткам
Продолжительность промежутка : 24 мс. (0,72 видеокадр)
Время предзагрузки промежутка : 475 мс.
Библиотека кодирования : LAME3.90.
Настройки программы : -m j -V 4 -q 2 -lowpass 17.6 --abr 128
Скриншоты:


Время раздачи: 24/7 возможны короткие перерывы, но буду стараться раздавать круглосуточно
Battle Of The X-Planes.avi.torrent
 Торрент: Золотая раздача  Зарегистрирован
 
Зарегистрируйтесь и скачайте торрент!
13,8 KB
Free Leech
 Зарегистрирован:   03 Сен 2007 20:55:36
 Размер:   699 MB  (
 Рейтинг:    (Голосов: 9)
 Поблагодарили:   25
 Проверка:   Оформление проверено модератором 04 Сен 2007 15:05:01
Как cкачать  ·  Как раздать  ·  Правильно оформить  ·  Поднять ратио!  
PredatoRRR
Стаж: 11 лет 7 мес.
Сообщений: 245
Ratio: 2,995
Поблагодарили: 1017
100%
russia.gif
А чета не качаетсо!!! Можна скорость дать, хоть какую нить?
master-13
Новогодний эрудит
Стаж: 9 лет 4 мес.
Сообщений: 513
Ratio: 274,015
Поблагодарили: 15152
100%
Откуда: из пролетариев
pridnestrovie.gif
Битва за контракт JSF: Boeing X-32 vs. Lockheed X-35 / Battle Of The X-Planes (2003) DVDRip

Жанр: Документальный
Описание фильма:
Битва за многомиллиардный контракт на разработку прототипов и поставку, возможно, последнего пилотируемого истребителя для ВВС США - Joint Strike Fighter (Единого Ударного Истребителя), развернулась на рубеже веков между компаниями Локхид и Боинг. Двухчасовой фильм подробно рассказывает историю проекта JSF от его зарождения до объявления победителей в конкурсе прототипов.
Режиссер: Michael Jorgensen
Продолжительность: 01:55:26
Видеокодек: DivX 5
Битрейт видео: 29.97 fps 700 кб/с
Размер кадра: 448 x 256
Качество видео: DVDRip
Аудиокодек: MP3
Битрейт аудио: 48000Hz stereo 132 кб/с
Перевод: Оригинальный
Общее
Полное имя : I:\Battle Of The X-Planes.avi
Формат : AVI
Формат/Информация : Audio Video Interleave
Размер файла : 699 Мбайт
Продолжительность : 1 ч. 55 м.
Режим общего битрейта : Переменный
Общий поток : 847 Кбит/сек
Программа кодирования : VirtualDubMod 1.5.4.1 (build 2178/release)
Библиотека кодирования : VirtualDubMod build 2178/release

Видео
Идентификатор : 0
Формат : MPEG-4 Visual
Параметр BVOP формата : 1
Параметр QPel формата : Нет
Параметр GMC формата : Без точки перехода
Параметр матрицы формата : Default (H.263)
Режим смешивания : Сжатый битовый поток
Идентификатор кодека : DX50
Идентификатор кодека/Подсказка : DivX 5
Продолжительность : 1 ч. 55 м.
Битрейт : 701 Кбит/сек
Ширина : 448 пикселей
Высота : 256 пикселей
Соотношение сторон : 16:9
Частота кадров : 29,970 кадров/сек
Цветовое пространство : YUV
Субдискретизация насыщенности : 4:2:0
Битовая глубина : 8 бит
Тип развёртки : Прогрессивная
Метод сжатия : С потерями
Бит/(Пиксели*Кадры) : 0.204
Размер потока : 579 Мбайт (83%)
Библиотека кодирования : DivX 5.1.1 (Maupiti) (UTC 2003-11-19)

Аудио
Идентификатор : 1
Формат : MPEG Audio
Версия формата : Version 1
Профиль формата : Layer 3
Режим : Joint stereo
Расширение режима : MS Stereo
Идентификатор кодека : 55
Идентификатор кодека/Подсказка : MP3
Продолжительность : 1 ч. 55 м.
Вид битрейта : Переменный
Битрейт : 128 Кбит/сек
Каналы : 2 канала
Частота : 48,0 КГц
Метод сжатия : С потерями
Размер потока : 109 Мбайт (16%)
Выравнивание : Соединение по промежуткам
Продолжительность промежутка : 24 мс. (0,72 видеокадр)
Время предзагрузки промежутка : 475 мс.
Библиотека кодирования : LAME3.90.
Настройки программы : -m j -V 4 -q 2 -lowpass 17.6 --abr 128
Скриншоты:


Время раздачи: 24/7 возможны короткие перерывы, но буду стараться раздавать круглосуточно
Код:
[align=center][font="Tahoma"][size=20][b]Битва за контракт JSF: Boeing X-32 vs. Lockheed X-35 / Battle Of The X-Planes (2003) DVDRip[/b][/size][/font][/align]

[poster=right]http://img509.imageshack.us/img509/6106/b00008ylv101lzzzzzzzjn7.jpg[/poster]

[b]Жанр:[/b] Документальный
[b]Описание фильма:[/b]
Битва за многомиллиардный контракт на разработку прототипов и поставку, возможно, последнего пилотируемого истребителя для ВВС США - Joint Strike Fighter (Единого Ударного Истребителя), развернулась на рубеже веков между компаниями Локхид и Боинг. Двухчасовой фильм подробно рассказывает историю проекта JSF от его зарождения до объявления победителей в конкурсе прототипов.
[b]Режиссер:[/b] Michael Jorgensen
[b]Продолжительность:[/b] 01:55:26
[b]Видеокодек:[/b] DivX 5
[b]Битрейт видео:[/b] 29.97 fps 700 кб/с
[b]Размер кадра:[/b] 448 x 256
[b]Качество видео:[/b] DVDRip
[b]Аудиокодек:[/b] MP3
[b]Битрейт аудио:[/b] 48000Hz stereo 132 кб/с
[b]Перевод:[/b] Оригинальный

[hide=MediaInfo]Общее
Полное имя                               : I:\Battle Of The X-Planes.avi
Формат                                   : AVI
Формат/Информация                        : Audio Video Interleave
Размер файла                             : 699 Мбайт
Продолжительность                        : 1 ч. 55 м.
Режим общего битрейта                    : Переменный
Общий поток                              : 847 Кбит/сек
Программа кодирования                    : VirtualDubMod 1.5.4.1 (build 2178/release)
Библиотека кодирования                   : VirtualDubMod build 2178/release

Видео
Идентификатор                            : 0
Формат                                   : MPEG-4 Visual
Параметр BVOP формата                    : 1
Параметр QPel формата                    : Нет
Параметр GMC формата                     : Без точки перехода
Параметр матрицы формата                 : Default (H.263)
Режим смешивания                         : Сжатый битовый поток
Идентификатор кодека                     : DX50
Идентификатор кодека/Подсказка           : DivX 5
Продолжительность                        : 1 ч. 55 м.
Битрейт                                  : 701 Кбит/сек
Ширина                                   : 448 пикселей
Высота                                   : 256 пикселей
Соотношение сторон                       : 16:9
Частота кадров                           : 29,970 кадров/сек
Цветовое пространство                    : YUV
Субдискретизация насыщенности            : 4:2:0
Битовая глубина                          : 8 бит
Тип развёртки                            : Прогрессивная
Метод сжатия                             : С потерями
Бит/(Пиксели*Кадры)                      : 0.204
Размер потока                            : 579 Мбайт (83%)
Библиотека кодирования                   : DivX 5.1.1 (Maupiti) (UTC 2003-11-19)

Аудио
Идентификатор                            : 1
Формат                                   : MPEG Audio
Версия формата                           : Version 1
Профиль формата                          : Layer 3
Режим                                    : Joint stereo
Расширение режима                        : MS Stereo
Идентификатор кодека                     : 55
Идентификатор кодека/Подсказка           : MP3
Продолжительность                        : 1 ч. 55 м.
Вид битрейта                             : Переменный
Битрейт                                  : 128 Кбит/сек
Каналы                                   : 2 канала
Частота                                  : 48,0 КГц
Метод сжатия                             : С потерями
Размер потока                            : 109 Мбайт (16%)
Выравнивание                             : Соединение по промежуткам
Продолжительность промежутка             : 24  мс. (0,72 видеокадр)
Время предзагрузки промежутка            : 475  мс.
Библиотека кодирования                   : LAME3.90.
Настройки программы                      : -m j -V 4 -q 2 -lowpass 17.6 --abr 128

[/hide]

[align=center][b]Скриншоты:[/b]
[URL=http://img338.imageshack.us/my.php?image=snapshot20070903185325vg3.jpg][img]http://img338.imageshack.us/img338/1355/snapshot20070903185325vg3.th.jpg[/img][/URL] [URL=http://img124.imageshack.us/my.php?image=01en1.jpg][img]http://img124.imageshack.us/img124/8126/01en1.th.jpg[/img][/URL][/align]

[b]Время раздачи:[/b] 24/7 возможны короткие перерывы, но буду стараться раздавать круглосуточно

_________________
Я, как пить бросил, стал на мир трезвыми глазами смотреть...
Показать сообщения:   
Начать новую тему   Ответить на тему    Торрент-трекер NNM-Club -> Документалистика и Телепередачи -> Авиация Часовой пояс: GMT + 3
Страница 1 из 1