Классический форум-трекер
canvas not supported
Нас вместе: 4 093 798

Foo Fighters - Skin and bones (2006) 720p, HDTV


 
 
RSS
Начать новую тему   Ответить на тему    Торрент-трекер NNM-Club -> Театр и Музыкальное видео -> Концерты
Автор Сообщение
chvv ®
Стаж: 9 лет 6 мес.
Сообщений: 536
Ratio: 111,518
Поблагодарили: 19627
100%
Откуда: Москва
russia.gif
Foo Fighters - Skin and bones (2006) [720p] HDTV
Год выпуска: 2006
Жанр: Концерт, Rock
Состав: Tylor, Petra, Nate, Pat, Chris, Rami and Dave
Треклист:
01 Intro
02 Razor
03 Over And Out
04 On The Mend
05 Walking After You
06 Still
07 Marigold
08 My Hero
09 Next Year
10 Another Round
11 See You
12 Cold Day In The Sun
13 Big Me
14 What If I Do?
15 Skin And Bones
16 Ain't It The Life
17 February Stars
18 Times Like These
19 Friend Of A Friend
20 Best Of You
21 Everlong
Продолжительность: 02:12:43
Home Page: http://www.foofighters.com/ca/home
Релиз группа: a three on the tree
Википедия:http://ru.wikipedia.org/wiki/Skin_and_Bones

Видеокодек: MPEG-4 AVC/H.264
Битрейт видео: ~6600 kbps
Размер кадра: 1280X720
Качество видео: HDTV
Аудиокодек: AC3 5.1
Битрейт аудио: 448 kbps
Код:

   Уникальный идентификатор                 : 209523355665774042119571437259380657294 (0x9DA0BB003F44DA948E3E11226C8A8C8E)
Полное имя                               : Z:\Концерты\Foo.Fighters.Skin.And.Bones.2006.HDTV.720p.x264-HDL.NNM-CLUB.mkv
Формат                                   : Matroska
Версия формата                           : Version 1
Размер файла                             : 6,54 Гбайт
Продолжительность                        : 2 ч. 12 м.
Режим общего битрейта                    : Переменный
Общий поток                              : 7051 Кбит/сек
Дата кодирования                         : UTC 2008-09-22 17:14:11
Программа кодирования                    : mkvmerge v2.3.0 ('Freak U') built on Sep  8 2008 18:32:16
Библиотека кодирования                   : libebml v0.7.7 + libmatroska v0.8.1

Видео
Идентификатор                            : 3
Формат                                   : AVC
Формат/Информация                        : Advanced Video Codec
Профиль формата                          : High@L4.1
Параметр CABAC формата                   : Да
Параметр ReFrames формата                : 3 кадра
Идентификатор кодека                     : V_MPEG4/ISO/AVC
Продолжительность                        : 2 ч. 12 м.
Вид битрейта                             : Переменный
Битрейт                                  : 6600 Кбит/сек
Максимальный битрейт                     : 38,0 Мбит/сек
Ширина                                   : 1280 пикселей
Высота                                   : 720 пикселей
Соотношение сторон                       : 16:9
Режим частоты кадров                     : Постоянный
Частота кадров                           : 23,976 кадра/сек
Цветовое пространство                    : YUV
Субдискретизация насыщенности            : 4:2:0
Битовая глубина                          : 8 бит
Тип развёртки                            : Прогрессивная
Бит/(Пиксели*Кадры)                      : 0.299
Размер потока                            : 5,99 Гбайт (92%)
Библиотека кодирования                   : x264 core 64 r985M e256ea1
Настройки программы                      : cabac=1 / ref=3 / deblock=1:0:0 / analyse=0x3:0x113 / me=umh / subme=6 / psy_rd=1.0:0.0 / brdo=1 / mixed_ref=1 / me_range=16 / chroma_me=1 / trellis=0 / 8x8dct=1 / cqm=2 / deadzone=21,11 / chroma_qp_offset=-2 / threads=6 / nr=0 / decimate=1 / mbaff=0 / bframes=3 / b_pyramid=0 / b_adapt=1 / b_bias=0 / direct=3 / wpredb=1 / bime=1 / keyint=24 / keyint_min=1 / scenecut=40(pre) / rc=2pass / bitrate=6600 / ratetol=1.0 / qcomp=0.50 / qpmin=10 / qpmax=51 / qpstep=4 / cplxblur=20.0 / qblur=0.5 / vbv_maxrate=38000 / vbv_bufsize=30000 / ip_ratio=1.10 / pb_ratio=1.10 / aq=1:1.00
Язык                                     : English
Default                                  : Да
Forced                                   : Нет

Аудио
Идентификатор                            : 2
Формат                                   : AC-3
Формат/Информация                        : Audio Coding 3
Расширение режима                        : CM (complete main)
Параметр Endianness формата              : Big
Идентификатор кодека                     : A_AC3
Продолжительность                        : 2 ч. 12 м.
Вид битрейта                             : Постоянный
Битрейт                                  : 448 Кбит/сек
Каналы                                   : 6 каналов
Расположение каналов                     : Front: L C R, Side: L R, LFE
Частота                                  : 48,0 КГц
Битовая глубина                          : 16 бит
Метод сжатия                             : С потерями
Размер потока                            : 426 Мбайт (6%)
Заголовок                                : AC3, 5.1 channels, 448kbps, 16 bits, 48khz
Язык                                     : English
Default                                  : Да
Forced                                   : Нет             
Скриншоты:

Реставрация sklad600
Foo.Fighters.Skin.And.Bones.2006.HDTV.720p.x264-HDL.NNM-CLUB.mkv.torrent
 Торрент: Золотая раздача  Зарегистрирован
 
Зарегистрируйтесь и скачайте торрент!
32,9 KB

Примагнититься
 Зарегистрирован:   29 Май 2011 19:15:33
 Размер:   6,54 GB  (
 Рейтинг:    (Голосов: 6)
 Поблагодарили:   15
 Проверка:   Оформление проверено модератором 29 Май 2011 23:37:39
Как cкачать  ·  Как раздать  ·  Правильно оформить  ·  Поднять ратио!  
Показать сообщения:   
Начать новую тему   Ответить на тему    Торрент-трекер NNM-Club -> Театр и Музыкальное видео -> Концерты Часовой пояс: GMT + 3
Страница 1 из 1