Классический форум-трекер
canvas not supported
Нас вместе: 4 068 591

Рататуй / Ratatouille (2007) DVD9


 
 
RSS
Начать новую тему   Ответить на тему    Торрент-трекер NNM-Club -> Архив торрентов -> Архив Мультфильмов
Автор Сообщение
Blue cat ®
 
Стаж: 8 лет 4 мес.
Сообщений: 570
Ratio: 148,427
Поблагодарили: 11511
100%
Откуда: Москва
russia.gif
Рататуй / Ratatouille (2007) DVD9
Русское название: Рататуй
Оригинальное название: Ratatouille
Страна: США
Год выпуска: 2007
Жанр: Мультфильм, Комедия, Семейный

Описание фильма:
Крыс Реми живет в подвале шикарного парижского ресторана и ежедневно рискует жизнью, добывая на кухне кусочки и крошки, оставшиеся от шедевров кулинарного искусства. Но гурману Реми этого мало — он втайне лелеет надежду стать заправским шеф-поваром.

Родственники Реми, привыкшие питаться отбросами, корят его за предательство традиций крысиного племени; работники ресторана стараются извести; и только поваренок Лингвини разделяет склонность Реми к несбыточным мечтам.

Режиссер: Брэд Бёрд, Ян Пинкава
Персонажи: Пэттон Освальт, Йен Холм, Лу Романо, Брайан Деннехи, Питер Сон, Питер О`Тул, Брэд Гаррет, Джанин Гарофало, Уилл Арнетт, Джулиус Каллахан, Джеймс Ремар, Джон Ратценбергер, Тедди Ньютон, Тони Фучиле, Jake Steinfeld, Брэд Бёрд

Продолжительность: 01:46:04
Перевод: Дублированный
Язык субтитров: Английский, Английский(для слабослышащих), Польский, Русский, Украинский, Эстонский
Язык субтитров (форсированные): Польский, Русский, Украинский, Эстонский
Вид субтитров: Вшитые
Меню: Английское, Польское, Русское, Украинское, Эстонское (анимированное)
Дополнительные материалы: да



Дата мировой премьеры: 22 июня 2007 года
Дата российской премьеры: 28 июня 2007 года
Дата выхода DVD релиза: 24 мая 2011 года

Формат: DVD Video
Качество видео: DVD9
Видеокодек: MPEG-2
Аудиокодек: AC3
Видео: PAL 16:9 (720x576) VBR Auto Letterboxed, ~6015 Кбит/сек (9800 Кбит/сек), 25.000 кадр/сек
Аудио №1: 384 Кбит/сек, 48.0 КГц, 16 бит, 6 ch - Английский (Оригинал)
Аудио №2: 384 Кбит/сек, 48.0 КГц, 16 бит, 6 ch - Польский (Дубляж)
Аудио №3: 384 Кбит/сек, 48.0 КГц, 16 бит, 6 ch - Русский (Дубляж)
Аудио №4: 192 Кбит/сек, 48.0 КГц, 16 бит, 2 ch - Украинский (Дубляж)
Аудио №5: 192 Кбит/сек, 48.0 КГц, 16 бит, 2 ch - Эстонский (Дубляж)


Общее
Полное имя : Рататуй DVD9\VIDEO_TS\VTS_04_2.VOB
Формат : MPEG-PS
Размер файла : 1024 Мбайт
Продолжительность : 18 м.
Общий поток : 7705 Кбит/сек

Видео
Идентификатор : 224 (0xE0)
Формат : MPEG Video
Версия формата : Version 2
Профиль формата : Main@Main
Параметр BVOP формата : Да
Параметр матрицы формата : По умолчанию
Параметры GOP формата : M=3, N=12
Продолжительность : 18 м.
Вид битрейта : Переменный
Битрейт : 6015 Кбит/сек
Номинальный битрейт : 9800 Кбит/сек
Ширина : 720 пикс.
Высота : 576 пикс.
Соотношение сторон : 16:9
Частота кадров : 25,000 кадр/сек
Стандарт вещания : Component
Цветовое пространство : YUV
Подвыборка цветности : 4:2:0
Битовая глубина : 8 бит
Тип развёртки : Прогрессивная
Порядок развёртки : Верхнее поле первое
Метод сжатия : С потерями
Бит/(Пиксели*Кадры) : 0.580
Размер потока : 799 Мбайт (78%)

Аудио #1
Идентификатор : 189 (0xBD)-128 (0x80)
Формат : AC-3
Формат/Информация : Audio Coding 3
Расширение режима : CM (complete main)
Режим смешивания : DVD-Video
Продолжительность : 18 м.
Вид битрейта : Постоянный
Битрейт : 384 Кбит/сек
Каналы : 6 каналов
Расположение каналов : Front: L C R, Side: L R, LFE
Частота : 48,0 КГц
Битовая глубина : 16 бит
Метод сжатия : С потерями
Задержка видео : -408 мс.
Размер потока : 51,0 Мбайт (5%)

Аудио #2
Идентификатор : 189 (0xBD)-129 (0x81)
Формат : AC-3
Формат/Информация : Audio Coding 3
Расширение режима : CM (complete main)
Режим смешивания : DVD-Video
Продолжительность : 18 м.
Вид битрейта : Постоянный
Битрейт : 384 Кбит/сек
Каналы : 6 каналов
Расположение каналов : Front: L C R, Side: L R, LFE
Частота : 48,0 КГц
Битовая глубина : 16 бит
Метод сжатия : С потерями
Задержка видео : -408 мс.
Размер потока : 51,0 Мбайт (5%)

Аудио #3
Идентификатор : 189 (0xBD)-130 (0x82)
Формат : AC-3
Формат/Информация : Audio Coding 3
Расширение режима : CM (complete main)
Режим смешивания : DVD-Video
Продолжительность : 18 м.
Вид битрейта : Постоянный
Битрейт : 384 Кбит/сек
Каналы : 6 каналов
Расположение каналов : Front: L C R, Side: L R, LFE
Частота : 48,0 КГц
Битовая глубина : 16 бит
Метод сжатия : С потерями
Задержка видео : -408 мс.
Размер потока : 51,0 Мбайт (5%)

Аудио #4
Идентификатор : 189 (0xBD)-131 (0x83)
Формат : AC-3
Формат/Информация : Audio Coding 3
Профиль формата : Dolby Digital
Расширение режима : CM (complete main)
Режим смешивания : DVD-Video
Продолжительность : 18 м.
Вид битрейта : Постоянный
Битрейт : 192 Кбит/сек
Каналы : 2 канала
Расположение каналов : Front: L R
Частота : 48,0 КГц
Битовая глубина : 16 бит
Метод сжатия : С потерями
Задержка видео : -376 мс.
Размер потока : 25,5 Мбайт (2%)

Аудио #5
Идентификатор : 189 (0xBD)-132 (0x84)
Формат : AC-3
Формат/Информация : Audio Coding 3
Профиль формата : Dolby Digital
Расширение режима : CM (complete main)
Режим смешивания : DVD-Video
Продолжительность : 18 м.
Вид битрейта : Постоянный
Битрейт : 192 Кбит/сек
Каналы : 2 канала
Расположение каналов : Front: L R
Частота : 48,0 КГц
Битовая глубина : 16 бит
Метод сжатия : С потерями
Задержка видео : -376 мс.
Размер потока : 25,5 Мбайт (2%)

Текст #1
Идентификатор : 189 (0xBD)-32 (0x20)
Формат : RLE
Формат/Информация : Run-length encoding
Режим смешивания : DVD-Video
Задержка видео : 1 с. 320 мс.

Текст #2
Идентификатор : 189 (0xBD)-33 (0x21)
Формат : RLE
Формат/Информация : Run-length encoding
Режим смешивания : DVD-Video
Продолжительность : 18 м.
Задержка видео : 1 с. 320 мс.

Текст #3
Идентификатор : 189 (0xBD)-34 (0x22)
Формат : RLE
Формат/Информация : Run-length encoding
Режим смешивания : DVD-Video
Задержка видео : 1 с. 320 мс.

Текст #4
Идентификатор : 189 (0xBD)-35 (0x23)
Формат : RLE
Формат/Информация : Run-length encoding
Режим смешивания : DVD-Video
Задержка видео : 1 с. 320 мс.

Текст #5
Идентификатор : 189 (0xBD)-36 (0x24)
Формат : RLE
Формат/Информация : Run-length encoding
Режим смешивания : DVD-Video
Задержка видео : 1 с. 320 мс.

Текст #6
Идентификатор : 189 (0xBD)-37 (0x25)
Формат : RLE
Формат/Информация : Run-length encoding
Режим смешивания : DVD-Video
Задержка видео : 1 с. 320 мс

Title: Рататуй DVD9
Size: 7.53 Gb ( 7 894 920,00 KBytes ) - DVD-9
Enabled regions: 1, 2, 3, 4, 5, 6, 7, 8

VTS_01 :
Play Length: 00:04:51
Video: PAL 16:9 (720x576) VBR, Auto Letterboxed
Audio:
English (Dolby AC3, 6 ch)
Subtitles:
Polish
Russian

VTS_02 :
Play Length: 00:10:51
Video: PAL 16:9 (720x576) VBR, Auto Letterboxed
Audio:
English (Dolby AC3, 6 ch)
Polish (Dolby AC3, 6 ch)
Russian (Dolby AC3, 6 ch)
Subtitles:
Polish
Russian

VTS_03 :
Play Length: 00:13:22
Video: PAL 16:9 (720x576) VBR, Auto Letterboxed
Audio:
English (Dolby AC3, 2 ch)
Subtitles:
Polish
Russian

VTS_04 :
Play Length: 01:46:04+00:01:05+00:01:05+00:01:05+00:01:05+00:00:34+00:00:04
Video: PAL 16:9 (720x576) VBR, Auto Letterboxed
Audio:
English (Dolby AC3, 6 ch)
Polish (Dolby AC3, 6 ch)
Russian (Dolby AC3, 6 ch)
Ukrainian (Dolby AC3, 2 ch)
Estonian (Dolby AC3, 2 ch)

VTS_05 :
Play Length: 00:00:13
Video: PAL 16:9 (720x576) VBR, Auto Letterboxed
Audio:
English (Dolby AC3, 2 ch)
Subtitles:
Polish
Russian

VTS_06 :
Play Length: 00:01:30
Video: PAL 16:9 (720x576) VBR, Auto Letterboxed
Audio:
English (Dolby AC3, 2 ch)
Russian (Dolby AC3, 2 ch)
Subtitles:
Polish
Russian
Ukrainian
Estonian

VTS_07 :
Play Length: 00:00:09
Video: PAL 4:3 (720x576) VBR
Audio:
English (Dolby AC3, 2 ch)
Russian (Dolby AC3, 2 ch)

VTS_08 :
Play Length: 00:00:17+00:00:17+00:00:17+00:00:17+00:00:17+00:00:55+00:00:55
Video: PAL 16:9 (720x576) VBR, Auto Letterboxed
Audio:
English (Dolby AC3, 6 ch)
Polish (Dolby AC3, 6 ch)
Russian (Dolby AC3, 6 ch)
Subtitles:
Polish
Russian

VTS_09 :
Play Length: 00:00:19
Video: PAL 16:9 (720x576) VBR, Auto Pan&Scan
Audio:
English (Dolby AC3, 6 ch)
Subtitles:
Polish
Russian

VTS_10 :
Play Length: 00:00:00+{00:00:00}
Video: PAL 4:3 (720x576) VBR
Скриншоты:


Время раздачи: 19:00 - 8:00(по будням)

Рататуй DVD5

Рататуй 720p
Рататуй BDRip
[NNM-Club.ru]_Ratatuy DVD9.torrent
 Торрент: Платиновая раздача  Зарегистрирован
 
Скачать


Примагнититься
 Зарегистрирован:   12 Июн 2011 22:59:16
 Размер:   7,53 GB  (
 Рейтинг:   4,7 (Голосов: 15)
 Поблагодарили:   40
 Проверка:   Оформление проверено модератором 12 Июн 2011 23:25:19
Как cкачать  ·  Как раздать  ·  Правильно оформить  ·  Поднять ратио!  
Топик был перенесен из форума Зарубежные Мультфильмы (DVD, Сборники) в форум Архив Мультфильмов

Причина переноса: Seeder last seen: 2014-04-05
almikl
intoxicatedmike
Стаж: 3 года 9 мес.
Сообщений: 9
Ratio: 58,82
100%
Ура! Пошла закачка!! Уважуха тому единственному сидеру, вернувшемуся на раздачу! Ура! Свой двд с мультфильмом посеял много лет назад, но теперь запишу его сам.

PS Большое спасибо автору раздачи!
DalvlaD
Стаж: 5 лет 11 мес.
Сообщений: 1
Ratio: 121,233
100%
07-03-2017. Не знаю, как определить раздающего, но выражаю ему огромную БЛАГОДАРНОСТЬ! СПАСИБО!
PS. Только не исчезни, пока не скачаю. Пожалуйста!
FLY635
Стаж: 4 года 7 мес.
Сообщений: 5
Ratio: 1,678
100%
pls seed!!!!
Показать сообщения:   
Начать новую тему   Ответить на тему    Торрент-трекер NNM-Club -> Архив торрентов -> Архив Мультфильмов Часовой пояс: GMT + 3
Страница 1 из 1