Классический форум-трекер
canvas not supported
Нас вместе: 4 079 278

Dance or Die - 12 albums (1990-2011) [FLAC|Lossless] <Dark Electro, EBM, Darkwave>


 
 
RSS
Начать новую тему   Ответить на тему    Торрент-трекер NNM-Club -> Electronic -> Experimental, Industrial, EBM, Dark Electro (Lossless)
Автор Сообщение
Fall Into The Sky ®
Стаж: 10 лет 5 мес.
Сообщений: 8074
Ratio: 42,457
Раздал: 18,62 TB
Поблагодарили: 30836
100%
Dance or Die - 12 albums (1990-2011)

Год: 1990-2011
Жанр: Dark Electro, EBM, Darkwave
Продолжительность: 08:06:05

Аудиокодек: FLAC (tracks)
Битрейт аудио: Lossless

Группа образована в Восточном Берлине в 1984 году, когда A.N.G.O. и Wagner объеденились в дуэт под названием Heart of Darkness. Название группы Dance or Die (Танцуй или умри) перефразировано с поговорки ‘Do or Die’, популярной среди американских солдат во время вьетнамской войны. Для некоторых американских лейблов Dance or Die были переименованы в Do Or Die своим лейблом Machinery.

Названия альбомов соответстует концепции: 3001 — будущее, Psychoburbia — психоз, Schlafende Energie (буквально: энергия бездействия). Это лишь свидетельствует о том, что творчество группы объединяет в себе элементы, характерные для нескольких направлений, - как правило мрачная лирика положена на готические и электронные текстуры, а вранних работах отчетливо прослеживается влияние EBM. Концептуальным и показательным альбомом можно считать Everspring, в котором определено направление группы по сегодняшний день. Тем не менее, группа продолжает эксперименты с различными направлениями современного звучания.

Альбомы:
Image
Продолжительность: 00:25:12

Треклист:
01. Lips Like Cherry Cream (06:26)
02. Candy Jungle (04:57)
03. Dance or Die (04:02)
04. Move (03:48)
05. Damn it ! (05:57)

Код:
Exact Audio Copy V0.99 prebeta 4 from 23. January 2008

Отчёт EAC об извлечении, выполненном 23. июля 2009, 14:10

Dance or Die / Dance or Die

Дисковод: Optiarc DVD RW AD-7201S   Adapter: 1  ID: 1

Режим чтения                 : Достоверность
Использование точного потока : Да
Отключение кэша аудио        : Да
Использование указателей C2  : Нет

Коррекция смещения при чтении                     : 48
Способность читать области Lead-in и Lead-out     : Нет
Заполнение пропущенных сэмплов тишиной            : Да
Удаление блоков с тишиной в начале и конце        : Нет
При вычислениях CRC использовались нулевые сэмплы : Да
Интерфейс                                         : Установленный внешний ASPI-интерфейс

Выходной формат : Внутренние WAV-операции
Формат сэмплов  : 44.100 Гц; 16 бит; стерео

TOC извлечённого CD

     Трек |   Старт  | Длительность | Начальный сектор | Конечный сектор
    ---------------------------------------------------------------------
       1  |  0:00.00 |    6:26.68   |           0      |      29017
       2  |  6:26.68 |    4:57.12   |       29018      |      51304
       3  | 11:24.05 |    4:02.03   |       51305      |      69457
       4  | 15:26.08 |    3:48.72   |       69458      |      86629
       5  | 19:15.05 |    5:57.70   |       86630      |     113474

Характеристики диапазона извлечения и сообщения об ошибках

Выбранный диапазон

     Имя файла D:\Documents and Settings\Rodexx\Рабочий стол\Dance or Die\Dance or Die - Dance or Die.wav

     Пиковый уровень 98.8 %
     Качество диапазона 100.0 %
     CRC копии CA436C06
     Копирование... OK

Ошибок не произошло

Конец отчёта
Код:
-----------------------

DON'T MODIFY THIS FILE

-----------------------

PERFORMER: auCDtect Task Manager, ver. 1.5.1RC4 build 1.5.1.5
Copyright (c) 2008-2010 y-soft. All rights reserved
http://y-soft.org

ANALYZER: auCDtect: CD records authenticity detector, version 0.8.2
Copyright (c) 2004 Oleg Berngardt. All rights reserved.
Copyright (c) 2004 Alexander Djourik. All rights reserved.

FILE: 01. Lips Like Cherry Cream.flac
  Size: 46045076 Hash: 182C1B3FE0B4B31605108F93A3AD712C Accuracy: -m0
  Conclusion: CDDA 100%
  Signature: DF77BCE70DCFDE3B19E9280E6982C08204611A4E
FILE: 02. Candy Jungle.flac
  Size: 36473711 Hash: F750D14D015ACD032A8FEA06F5D095EA Accuracy: -m0
  Conclusion: CDDA 100%
  Signature: 38D4B84AD0F915A2DFC20E0F7C67431ED0247F28
FILE: 03. Dance or Die.flac
  Size: 29349377 Hash: 6076CBEAEF3820CE62AD84B3849FCB68 Accuracy: -m0
  Conclusion: CDDA 100%
  Signature: AAD0AF72EDED6C324B0C75569FEA242BBA3BB46C
FILE: 04. Move.flac
  Size: 28823090 Hash: FFB4F029F5926CF44A5C4127F23BDB1E Accuracy: -m0
  Conclusion: CDDA 100%
  Signature: 82ACC29EACF8D5F3F5EF22B76B0D2391D4FCBAFA
FILE: 05. Damn it !.flac
  Size: 41385613 Hash: 07597CF2CF83078987946EE6224B3418 Accuracy: -m0
  Conclusion: MPEG 95%
  Signature: 41A913D8EF16E2651BC9C864176DCDE01791A2FE
Image
Продолжительность: 00:56:46

Треклист:
01. Prelude (03:01)
02. Fire (04:48)
03. After Dinner Spark (04:23)
04. Never Reach the Stars (02:42)
05. Galaxy (04:15)
06. Heart of Silence (03:57)
07. 3002 (01:42)
08. Spirit (03:40)
09. The Tunnel (03:52)
10. Never Reach the Stars II (02:13)
11. Brainwash (04:12)
12. Dance or Die (04:05)
13. 3001 (02:08)
14. Raindance (04:54)
15. Brainwash (PERC Mix) (04:07)
16. Barroque 3000 (02:41)

Код:
Exact Audio Copy V0.99 prebeta 4 from 23. January 2008

Отчёт EAC об извлечении, выполненном 22. июля 2009, 13:52

Dance or Die / 3001

Дисковод: Optiarc DVD RW AD-7201S   Adapter: 1  ID: 1

Режим чтения                 : Достоверность
Использование точного потока : Да
Отключение кэша аудио        : Да
Использование указателей C2  : Нет

Коррекция смещения при чтении                     : 48
Способность читать области Lead-in и Lead-out     : Нет
Заполнение пропущенных сэмплов тишиной            : Да
Удаление блоков с тишиной в начале и конце        : Нет
При вычислениях CRC использовались нулевые сэмплы : Да
Интерфейс                                         : Установленный внешний ASPI-интерфейс

Выходной формат : Внутренние WAV-операции
Формат сэмплов  : 44.100 Гц; 16 бит; стерео

TOC извлечённого CD

     Трек |   Старт  | Длительность | Начальный сектор | Конечный сектор
    ---------------------------------------------------------------------
       1  |  0:00.00 |    3:01.28   |           0      |      13602
       2  |  3:01.28 |    4:48.55   |       13603      |      35257
       3  |  7:50.08 |    4:24.70   |       35258      |      55127
       4  | 12:15.03 |    2:42.67   |       55128      |      67344
       5  | 14:57.70 |    4:15.28   |       67345      |      86497
       6  | 19:13.23 |    3:57.40   |       86498      |     104312
       7  | 23:10.63 |    1:42.40   |      104313      |     112002
       8  | 24:53.28 |    3:40.12   |      112003      |     128514
       9  | 28:33.40 |    3:52.40   |      128515      |     145954
      10  | 32:26.05 |    2:13.10   |      145955      |     155939
      11  | 34:39.15 |    4:12.23   |      155940      |     174862
      12  | 38:51.38 |    4:05.10   |      174863      |     193247
      13  | 42:56.48 |    2:08.52   |      193248      |     202899
      14  | 45:05.25 |    4:55.13   |      202900      |     225037
      15  | 50:00.38 |    4:07.70   |      225038      |     243632
      16  | 54:08.33 |    2:41.20   |      243633      |     255727

Характеристики диапазона извлечения и сообщения об ошибках

Выбранный диапазон

     Имя файла D:\Documents and Settings\Rodexx\Рабочий стол\Dance Or Die-3001\Dance or Die - 3001.wav

     Пиковый уровень 85.1 %
     Качество диапазона 100.0 %
     CRC копии 50757FA9
     Копирование... OK

Ошибок не произошло

Конец отчёта
Код:
-----------------------

DON'T MODIFY THIS FILE

-----------------------

PERFORMER: auCDtect Task Manager, ver. 1.5.1RC4 build 1.5.1.5
Copyright (c) 2008-2010 y-soft. All rights reserved
http://y-soft.org

ANALYZER: auCDtect: CD records authenticity detector, version 0.8.2
Copyright (c) 2004 Oleg Berngardt. All rights reserved.
Copyright (c) 2004 Alexander Djourik. All rights reserved.

FILE: 01. Prelude.flac
  Size: 20128982 Hash: 941B251F16D568EDD713E689E642BC6A Accuracy: -m0
  Conclusion: CDDA 100%
  Signature: 7493A0AD637893EBD24E89317BCD7D7753006792
FILE: 02. Fire.flac
  Size: 33881434 Hash: 0ECA35E08DD620267AB491C5D80DCAA3 Accuracy: -m0
  Conclusion: CDDA 100%
  Signature: 064F4A053DD7A0E1384C77A416B50DEC4F1C437D
FILE: 03. After Dinner Spark.flac
  Size: 33737716 Hash: CC68D9C637E15B406B98B0E3B1ED2FB9 Accuracy: -m0
  Conclusion: CDDA 99%
  Signature: 439B9C9B85E53D41F7CD35CBB78D51F5AC802426
FILE: 04. Never Reach the Stars.flac
  Size: 19605314 Hash: 37BB6D844E8D5D2DB3320510BEB23145 Accuracy: -m0
  Conclusion: CDDA 100%
  Signature: 052D07D97437BAA8EAF3D0CE62FE414E5FDD0D43
FILE: 05. Galaxy.flac
  Size: 29558280 Hash: CC4DFAC2A16C9C16671F195D5B7ED210 Accuracy: -m0
  Conclusion: CDDA 100%
  Signature: 518FF4E2209485022156F5E80C46A549AF70234E
FILE: 06. Heart of Silence.flac
  Size: 30271075 Hash: F831898A4DA0EB54139EA5B481785E8F Accuracy: -m0
  Conclusion: CDDA 99%
  Signature: AA83DE24DC2D73B81DA05639C78EC0BC7B45D4E4
FILE: 07. 3002.flac
  Size: 9989067 Hash: C0764C0F01BEBA83A4FC96778D02D3B0 Accuracy: -m0
  Conclusion: CDDA 100%
  Signature: D91B4647B632DC916C0FA1B1C03E6B17A86870B5
FILE: 08. Spirit.flac
  Size: 24479758 Hash: 76F73B06A329F223668C7C0B5A58A652 Accuracy: -m0
  Conclusion: CDDA 100%
  Signature: 05435FF782A6554F47231B51DB87DCDDB6AA1E8D
FILE: 09. The Tunnel.flac
  Size: 30412168 Hash: 30F0C7F8B472367A787A120DADFF873C Accuracy: -m0
  Conclusion: CDDA 100%
  Signature: B99487627E1362F721E5C0C9C1279157E09FA2AA
FILE: 10. Never Reach the Stars II.flac
  Size: 15348247 Hash: A69BFCE9B8A79A246165D04AEF9F1B6D Accuracy: -m0
  Conclusion: CDDA 100%
  Signature: 2C56E3053C4C457175AC5F1B1B2C35EE38598422
FILE: 11. Brainwash.flac
  Size: 33224904 Hash: E593F4240268DB77A4E60DDCC789E85D Accuracy: -m0
  Conclusion: CDDA 100%
  Signature: 5B67A8BF4D158C86E1E5CDA03E3286CF65FED0A3
FILE: 12. Dance or Die.flac
  Size: 31183723 Hash: 4FCF6EDEF86BD604861DF6E108464254 Accuracy: -m0
  Conclusion: CDDA 100%
  Signature: 6EB93F2A174C0CB891D9EBD99938FB590FD58BFA
FILE: 13. 3001.flac
  Size: 11807763 Hash: 3E32A499E65BF76854DF4778A1F61783 Accuracy: -m0
  Conclusion: CDDA 100%
  Signature: 5888B676354F9B2D193DFD80AB0BB8B787E78A2A
FILE: 14. Raindance.flac
  Size: 37706829 Hash: 8D0F605C99852B46998C22A771CF86E8 Accuracy: -m0
  Conclusion: CDDA 100%
  Signature: 89B7987E7DAAB584C67A5406C021EF5EE997F4AE
FILE: 15. Brainwash (PERC Mix).flac
  Size: 29244219 Hash: 4927A905C160DD19DC9D5C8BE002EE85 Accuracy: -m0
  Conclusion: CDDA 100%
  Signature: B8EAD616292F2CBD23FF2FA24869E1B9D2C35AED
FILE: 16. Barroque 3000.flac
  Size: 19986526 Hash: 652ABFD78DF5E67D8AD0EAA9C11CAAB5 Accuracy: -m0
  Conclusion: CDDA 100%
  Signature: 49CCC23A323CA970B14DEE6356E778C9A8FF718A
Image
Продолжительность: 00:44:37

Треклист:
01. Psychoburbia (04:30)
02. Will Of The Wind (Part 1) (02:59)
03. Will Of The Wind (Part 2) (01:45)
04. Black Sabbath (06:00)
05. Man Mind Machine (03:23)
06. Escape (04:04)
07. Lügenbaron (03:51)
08. Berlin 5 A.M. (02:52)
09. Archimedes (03:58)
10. Right Or Wrong (04:06)
11. Daydream (03:52)
12. Golden Cage (03:11)

Код:
Exact Audio Copy V0.99 prebeta 4 from 23. January 2008

Отчёт EAC об извлечении, выполненном 23. июля 2009, 13:39

Dance Or Die / Psychoburbia

Дисковод: Optiarc DVD RW AD-7201S   Adapter: 1  ID: 1

Режим чтения                 : Достоверность
Использование точного потока : Да
Отключение кэша аудио        : Да
Использование указателей C2  : Нет

Коррекция смещения при чтении                     : 48
Способность читать области Lead-in и Lead-out     : Нет
Заполнение пропущенных сэмплов тишиной            : Да
Удаление блоков с тишиной в начале и конце        : Нет
При вычислениях CRC использовались нулевые сэмплы : Да
Интерфейс                                         : Установленный внешний ASPI-интерфейс

Выходной формат : Внутренние WAV-операции
Формат сэмплов  : 44.100 Гц; 16 бит; стерео

TOC извлечённого CD

     Трек |   Старт  | Длительность | Начальный сектор | Конечный сектор
    ---------------------------------------------------------------------
       1  |  0:00.00 |    4:30.10   |           0      |      20259
       2  |  4:30.10 |    2:59.22   |       20260      |      33706
       3  |  7:29.32 |    1:45.30   |       33707      |      41611
       4  |  9:14.62 |    6:00.68   |       41612      |      68679
       5  | 15:15.55 |    3:23.57   |       68680      |      83961
       6  | 18:39.37 |    4:04.35   |       83962      |     102296
       7  | 22:43.72 |    3:51.13   |      102297      |     119634
       8  | 26:35.10 |    2:52.40   |      119635      |     132574
       9  | 29:27.50 |    3:58.72   |      132575      |     150496
      10  | 33:26.47 |    4:06.38   |      150497      |     168984
      11  | 37:33.10 |    3:52.00   |      168985      |     186384
      12  | 41:25.10 |    3:11.72   |      186385      |     200781

Характеристики диапазона извлечения и сообщения об ошибках

Выбранный диапазон

     Имя файла D:\Documents and Settings\Rodexx\Рабочий стол\Dance or Die - Psychoburbia\Dance Or Die - Psychoburbia.wav

     Пиковый уровень 98.4 %
     Качество диапазона 99.9 %
     CRC копии 4487E78A
     Копирование... OK

Ошибок не произошло

Конец отчёта
Код:
-----------------------

DON'T MODIFY THIS FILE

-----------------------

PERFORMER: auCDtect Task Manager, ver. 1.5.1RC4 build 1.5.1.5
Copyright (c) 2008-2010 y-soft. All rights reserved
http://y-soft.org

ANALYZER: auCDtect: CD records authenticity detector, version 0.8.2
Copyright (c) 2004 Oleg Berngardt. All rights reserved.
Copyright (c) 2004 Alexander Djourik. All rights reserved.

FILE: 01. Psychoburbia.flac
  Size: 35242099 Hash: 227BED808EACC9B5B434460AC83A19F5 Accuracy: -m0
  Conclusion: CDDA 100%
  Signature: E2A0A5036ADE0D439A503B3ED7E8FB6AF04D3B15
FILE: 02. Will Of The Wind (Part 1).flac
  Size: 21702056 Hash: A0B59947DB6385C050F0DB1613769D65 Accuracy: -m0
  Conclusion: CDDA 100%
  Signature: AAE3A5CF8167519C3AA240E677E92863CEDD596E
FILE: 03. Will Of The Wind (Part 2).flac
  Size: 10973806 Hash: F45893EA8818245FA13696FD63CDF301 Accuracy: -m0
  Conclusion: CDDA 100%
  Signature: EC11120465B6563C1FD2984788460DB82E83EE62
FILE: 04. Black Sabbath.flac
  Size: 40881556 Hash: 59B84109777843AF7781011D5268CFB5 Accuracy: -m0
  Conclusion: CDDA 100%
  Signature: 3D134E879651D879D72DF368FD802573D3A9E6B9
FILE: 05. Man Mind Machine.flac
  Size: 22923964 Hash: D201B1518F04869C87BCEDA715A3FF2D Accuracy: -m0
  Conclusion: CDDA 100%
  Signature: 276304FB1410A743998B40C95193A2D06D5AD7B3
FILE: 06. Escape.flac
  Size: 30733264 Hash: 49C8137B2019291978C3836E3D581AB1 Accuracy: -m0
  Conclusion: CDDA 99%
  Signature: B9DD241E1AC8681A085C4E666368597A1E754546
FILE: 07. Lugenbaron.flac
  Size: 29633390 Hash: EDFD1AF6D971E6EEF4CA71FCAD5844DE Accuracy: -m0
  Conclusion: CDDA 99%
  Signature: D473152754D17B1EF80F10D278B3B209A281DB0F
FILE: 08. Berlin 5 A.M.flac
  Size: 16780345 Hash: 8C1EF70F101D42FC555089F52A566BA7 Accuracy: -m0
  Conclusion: CDDA 100%
  Signature: D8225C3350EFB39F0B8F2CA7AA631EF9414B76F5
FILE: 09. Archimedes.flac
  Size: 28744174 Hash: 781B2332ACCABF5115E96982FDF5599C Accuracy: -m0
  Conclusion: CDDA 100%
  Signature: 9C833EEA5FAD22A1079D2419FCD396D1624030F1
FILE: 10. Right Or Wrong.flac
  Size: 25120741 Hash: B5D017AAA518C255DB212C8C967E9799 Accuracy: -m0
  Conclusion: CDDA 100%
  Signature: 19E2BC729E705612A7420D4CF785494E85424F03
FILE: 11. Daydream.flac
  Size: 28699273 Hash: A7390E1C7223E1EBB609896E11804E40 Accuracy: -m0
  Conclusion: CDDA 100%
  Signature: 54D22FE6BBE9433EAE045206B97FEC1AA0AC2B41
FILE: 12. Golden Cage.flac
  Size: 19507692 Hash: 0EFDEA14DC344E8B8445A72A3F1EB427 Accuracy: -m0
  Conclusion: CDDA 100%
  Signature: 068F28CC5B91F5871AC90086DE57DACD48E14FD8
Image
Продолжительность: 00:19:04

Треклист:
01 - Psychoburbia (04:31)
02 - Fire (04:52)
03 - Will Of The Wind (05:36)
04 - Dance Or Die (04:04)

Отсутствует.
Код:
-----------------------

DON'T MODIFY THIS FILE

-----------------------

PERFORMER: auCDtect Task Manager, ver. 1.5.1RC4 build 1.5.1.5
Copyright (c) 2008-2010 y-soft. All rights reserved
http://y-soft.org

ANALYZER: auCDtect: CD records authenticity detector, version 0.8.2
Copyright (c) 2004 Oleg Berngardt. All rights reserved.
Copyright (c) 2004 Alexander Djourik. All rights reserved.

FILE: Dance Or Die - 01 - Psychoburbia.flac
  Size: 34941986 Hash: 8B526BCF5A5E0EC98C74222B9F927D2E Accuracy: -m0
  Conclusion: CDDA 99%
  Signature: FFA740DECC8FDC8A4D93D3E29768F6433BC6C015
FILE: Dance Or Die - 02 - Fire.flac
  Size: 32937143 Hash: 30D969A0C7F03FA8D5DE57745F5B8437 Accuracy: -m0
  Conclusion: CDDA 100%
  Signature: 64D62EDEAF7054BB66D5B63A7B530F4853AAC57A
FILE: Dance Or Die - 03 - Will Of The Wind.flac
  Size: 34694929 Hash: B2F72F896C0D8CCAED91AC42CD6E37B6 Accuracy: -m0
  Conclusion: CDDA 100%
  Signature: 4ACE2A1ED073EA492D40C4DEADA8C76DC4CFA9F7
FILE: Dance Or Die - 04 - Dance Or Die.flac
  Size: 30749173 Hash: 5F1F22F0C5EEF929AA1476D1995D5CB2 Accuracy: -m0
  Conclusion: CDDA 100%
  Signature: 394F58A33AC5263233BCA79D98A7A3BDEA1A511B
Image
Продолжительность: 00:46:45

Треклист:
01. Everspring (01:31)
02. Time Zero (04:28)
03. Desperate Generation (04:30)
04. Minuteman (04:37)
05. Channel 83 (02:43)
06. Goldrush (04:26)
07. Sativa (03:42)
08. Age Of Control (05:00)
09. Life Is Too Short (04:15)
10. Count The Seconds (04:39)
11. Chainreaction (03:14)
12. Everspring - 4.11 O.Hull (03:35)

Код:
Exact Audio Copy V0.99 prebeta 4 from 23. January 2008

Отчёт EAC об извлечении, выполненном 9. августа 2008, 13:11

Dance or Die / Everspring

Дисковод: PIONEER DVD-RW  DVR-111D   Adapter: 0  ID: 0

Режим чтения                 : Достоверность
Использование точного потока : Да
Отключение кэша аудио        : Да
Использование указателей C2  : Нет

Коррекция смещения при чтении                     : 48
Способность читать области Lead-in и Lead-out     : Нет
Заполнение пропущенных сэмплов тишиной            : Да
Удаление блоков с тишиной в начале и конце        : Нет
При вычислениях CRC использовались нулевые сэмплы : Да
Интерфейс                                         : Встроенный Win32-интерфейс для Win NT/2000

Выходной формат          : Пользовательский кодировщик
Выбранный битрейт        : 1024 kBit/s
Качество                 : Высокий
Добавление ID3-тэга      : Нет
Утилита сжатия           : C:\Program Files\Exact Audio Copy\FLAC\FLAC.EXE
Дополнительные параметры : -8 -V -T "ARTIST=%a" -T "TITLE=%t" -T "ALBUM=%g" -T "DATE=%y" -T "TRACKNUMBER=%n" -T "GENRE=%m" -T "COMMENT=%e" %s -o %d

TOC извлечённого CD

     Трек |   Старт  | Длительность | Начальный сектор | Конечный сектор
    ---------------------------------------------------------------------
       1  |  0:01.00 |    1:31.16   |          75      |       6915
       2  |  1:32.16 |    4:28.26   |        6916      |      27041
       3  |  6:00.42 |    4:30.58   |       27042      |      47349
       4  | 10:31.25 |    4:37.42   |       47350      |      68166
       5  | 15:08.67 |    2:42.72   |       68167      |      80388
       6  | 17:51.64 |    4:26.30   |       80389      |     100368
       7  | 22:18.19 |    3:42.45   |      100369      |     117063
       8  | 26:00.64 |    5:00.47   |      117064      |     139610
       9  | 31:01.36 |    4:15.20   |      139611      |     158755
      10  | 35:16.56 |    4:39.74   |      158756      |     179754
      11  | 39:56.55 |    3:14.34   |      179755      |     194338
      12  | 43:11.14 |    3:36.07   |      194339      |     210545

Характеристики диапазона извлечения и сообщения об ошибках

Выбранный диапазон

     Имя файла D:\123\NEW UNREALESED\Dance or Die - Everspring [1995]\Dance or Die - Everspring.wav

     Пиковый уровень 99.1 %
     Качество диапазона 99.9 %
     CRC теста 95EC7A6F
     CRC копии 95EC7A6F
     Копирование... OK

Ошибок не произошло

AccurateRip: сводка

Трек  1  нет в базе данных
Трек  2  нет в базе данных
Трек  3  нет в базе данных
Трек  4  нет в базе данных
Трек  5  нет в базе данных
Трек  6  нет в базе данных
Трек  7  нет в базе данных
Трек  8  нет в базе данных
Трек  9  нет в базе данных
Трек 10  нет в базе данных
Трек 11  нет в базе данных
Трек 12  нет в базе данных

Ни одного трека нет в базе AccurateRip

Конец отчёта
Код:
-----------------------

DON'T MODIFY THIS FILE

-----------------------

PERFORMER: auCDtect Task Manager, ver. 1.5.1RC4 build 1.5.1.5
Copyright (c) 2008-2010 y-soft. All rights reserved
http://y-soft.org

ANALYZER: auCDtect: CD records authenticity detector, version 0.8.2
Copyright (c) 2004 Oleg Berngardt. All rights reserved.
Copyright (c) 2004 Alexander Djourik. All rights reserved.

FILE: (01) [Dance or Die] Everspring.flac
  Size: 9173739 Hash: 3E2CE65976BC2AC47DC8344D18098116 Accuracy: -m0
  Conclusion: CDDA 100%
  Signature: 713C40A5304C45D5496FEC2FED46D6950C040556
FILE: (02) [Dance or Die] Time Zero.flac
  Size: 31951473 Hash: EB7BA2105CD1A6CA40C9C7FDAF12FB6E Accuracy: -m0
  Conclusion: CDDA 99%
  Signature: B82C2913700872822EBC4B8DC9A3C050581F3918
FILE: (03) [Dance or Die] Desperate Generation.flac
  Size: 33187632 Hash: 36E2E801D0151AD98C8918B62087411D Accuracy: -m0
  Conclusion: CDDA 100%
  Signature: 7F052B2A4059797CCEDEEC41A3DBA91FA5052146
FILE: (04) [Dance or Die] Minuteman.flac
  Size: 35009077 Hash: 7BB7E5D03BE6F75CA0ABE264EB1C856A Accuracy: -m0
  Conclusion: CDDA 100%
  Signature: 2FD4DD38E1233E295A5C3E5750A5655458308969
FILE: (05) [Dance or Die] Channel 83.flac
  Size: 19049518 Hash: 3CA6AD8242B86E2D8CCB954AD9113478 Accuracy: -m0
  Conclusion: CDDA 99%
  Signature: 67FCBB68CD4DDB9E3E4B238E9E24D60318A42405
FILE: (06) [Dance or Die] Goldrush.flac
  Size: 29492203 Hash: 581EEF1E2E7E1DE995D067C630E290DA Accuracy: -m0
  Conclusion: CDDA 100%
  Signature: A84D50FF76AF1ADB77FD743206DAA87DAE553E75
FILE: (07) [Dance or Die] Sativa.flac
  Size: 25302520 Hash: 672BBF68BE51194D7EA0C53F62F38B23 Accuracy: -m0
  Conclusion: CDDA 100%
  Signature: E4AD18A6828CC913D279F2403D658F6D0B4A1A23
FILE: (08) [Dance or Die] Age Of Control.flac
  Size: 36558112 Hash: A073596B3DBE23F2BC563AFF6DD30067 Accuracy: -m0
  Conclusion: CDDA 100%
  Signature: 2D51D79E87AF2164C5BB0AD3F61F7FFE91BCDC6B
FILE: (09) [Dance or Die] Life Is Too Short.flac
  Size: 28756408 Hash: 63C3F92930179583173DE749659C7B02 Accuracy: -m0
  Conclusion: CDDA 100%
  Signature: 7D34895E723A34C9AB7BA8452D188D325A125B77
FILE: (10) [Dance or Die] Count The Seconds.flac
  Size: 32845039 Hash: EA32DA3BB042902350E97FC4DD47AFA9 Accuracy: -m0
  Conclusion: CDDA 100%
  Signature: BF3DD0C52FBED0E9F8073E99BC36F807224211C5
FILE: (11) [Dance or Die] Chainreaction.flac
  Size: 21886919 Hash: 8FA1BC4D5BAF5192E2663F82EE20436C Accuracy: -m0
  Conclusion: CDDA 100%
  Signature: 696A981267083C5E178B70AD25FCFC7A10DC5DF1
FILE: (12) [Dance or Die] Everspring - 4.11 O.Hull.flac
  Size: 20851232 Hash: 69BC0C7A8AB23B687D2A7AF284F50D39 Accuracy: -m0
  Conclusion: CDDA 100%
  Signature: A2C71A399772B1775D1FEB21247933D7142C5285
Image
Продолжительность: 00:16:09

Треклист:
01. Minuteman (Radio-Time) (03:26)
02. Goldrush (Club-Time) (06:47)
03. Minuteman (Club-Time) (05:55)

Код:
Exact Audio Copy V0.99 prebeta 5 from 4. May 2009

Отчёт EAC об извлечении, выполненном 22. марта 2011, 19:12

Dance Or Die / Minuteman

Дисковод: _NEC    DVD_RW ND-4550A   Adapter: 0  ID: 2

Режим чтения                 : Достоверность
Использование точного потока : Да
Отключение кэша аудио        : Да
Использование указателей C2  : Нет

Коррекция смещения при чтении                     : 48
Способность читать области Lead-in и Lead-out     : Нет
Заполнение пропущенных сэмплов тишиной            : Да
Удаление блоков с тишиной в начале и конце        : Нет
При вычислениях CRC использовались нулевые сэмплы : Да
Интерфейс                                         : Встроенный Win32-интерфейс для Win NT/2000

Выходной формат : Внутренние WAV-операции
Формат сэмплов  : 44.100 Гц; 16 бит; стерео

TOC извлечённого CD

     Трек |   Старт  | Длительность | Начальный сектор | Конечный сектор
    ---------------------------------------------------------------------
       1  |  0:01.00 |    3:27.72   |          75      |      15671
       2  |  3:28.72 |    6:48.28   |       15672      |      46299
       3  | 10:17.25 |    5:55.51   |       46300      |      72975

Характеристики диапазона извлечения и сообщения об ошибках

Выбранный диапазон

     Имя файла D:\Music\Dance Or Die - Mimute Man (Single)\Dance Or Die - Minuteman.wav

     Пиковый уровень 97.7 %
     Качество диапазона 100.0 %
     CRC теста 3BF152BC
     CRC копии 3BF152BC
     Копирование... OK

Ошибок не произошло

AccurateRip: сводка

Трек  1  точное извлечение (доверие 1)  [D65DF977]
Трек  2  точное извлечение (доверие 1)  [AD95CD8E]
Трек  3  точное извлечение (доверие 1)  [05638B4E]

Все треки извлечены точно

Конец отчёта
Код:
-----------------------

DON'T MODIFY THIS FILE

-----------------------

PERFORMER: auCDtect Task Manager, ver. 1.5.1RC4 build 1.5.1.5
Copyright (c) 2008-2010 y-soft. All rights reserved
http://y-soft.org

ANALYZER: auCDtect: CD records authenticity detector, version 0.8.2
Copyright (c) 2004 Oleg Berngardt. All rights reserved.
Copyright (c) 2004 Alexander Djourik. All rights reserved.

FILE: (01) [Dance Or Die] Minuteman (Radio-Time).flac
  Size: 25488628 Hash: E1037B6EFA7DD9E48E06E2D774E9C90E Accuracy: -m0
  Conclusion: CDDA 100%
  Signature: 1A74C3951B6ED52F042087F507CB57A61E7FA184
FILE: (02) [Dance Or Die] Goldrush (Club-Time).flac
  Size: 44315838 Hash: 0D00622ED9D8E901B596AD42EC7B968A Accuracy: -m0
  Conclusion: CDDA 100%
  Signature: 5451F16F9B3BAD5275BA396ED5F1026FB44E34F8
FILE: (03) [Dance Or Die] Minuteman (Club-Time).flac
  Size: 44270843 Hash: 5BE49D0EE85844C26DBC4ED3812D7C9E Accuracy: -m0
  Conclusion: CDDA 99%
  Signature: 68AA46771E652EBBE8175218E852A41ED03F145E
Image
Продолжительность: 00:17:32

Треклист:
01. Time Zero (low-mix) (04:31)
02. Count The Seconds (04:05)
03. Time (high-mix club) (04:46)
04. Endzeit (04:08)

Код:
Exact Audio Copy V0.99 prebeta 5 from 4. May 2009

EAC extraction logfile from 13. August 2009, 15:20

Dance Or Die / Time Zero

Used drive  : ASUS    DRW-1604P   Adapter: 0  ID: 2

Read mode               : Secure
Utilize accurate stream : Yes
Defeat audio cache      : Yes
Make use of C2 pointers : No

Read offset correction                      : 48
Overread into Lead-In and Lead-Out          : No
Fill up missing offset samples with silence : Yes
Delete leading and trailing silent blocks   : No
Null samples used in CRC calculations       : Yes
Used interface                              : Installed external ASPI interface
Gap handling                                : Appended to previous track

Used output format              : User Defined Encoder
Selected bitrate                : 320 kBit/s
Quality                         : High
Add ID3 tag                     : No
Command line compressor         : C:\Program Files\FLAC\flac.exe
Additional command line options : -V -8 -T "artist=%a" -T "title=%t" -T "album=%g" -T "date=%y" -T "tracknumber=%n" -T "genre=%m" %s

TOC of the extracted CD

     Track |   Start  |  Length  | Start sector | End sector
    ---------------------------------------------------------
        1  |  0:00.00 |  4:31.72 |         0    |    20396
        2  |  4:31.72 |  4:05.73 |     20397    |    38844
        3  |  8:37.70 |  4:46.15 |     38845    |    60309
        4  | 13:24.10 |  4:08.45 |     60310    |    78954

Track  1

     Filename C:\Documents and Settings\Korisnik\Desktop\Encoded\Dance Or Die\Time Zero\01 - Time Zero (low-mix).wav

     Pre-gap length  0:00:02.00

     Peak level 99.1 %
     Track quality 99.9 %
     Test CRC A9CA35CD
     Copy CRC A9CA35CD
     Accurately ripped (confidence 1)  [DE78412D]
     Copy OK

Track  2

     Filename C:\Documents and Settings\Korisnik\Desktop\Encoded\Dance Or Die\Time Zero\02 - Count The Seconds.wav

     Pre-gap length  0:00:02.53

     Peak level 97.7 %
     Track quality 100.0 %
     Test CRC E76B13B1
     Copy CRC E76B13B1
     Accurately ripped (confidence 1)  [7DD80B3A]
     Copy OK

Track  3

     Filename C:\Documents and Settings\Korisnik\Desktop\Encoded\Dance Or Die\Time Zero\03 - Time (high-mix club).wav

     Pre-gap length  0:00:02.60

     Peak level 97.7 %
     Track quality 100.0 %
     Test CRC B7EB04FC
     Copy CRC B7EB04FC
     Accurately ripped (confidence 1)  [6A22C67A]
     Copy OK

Track  4

     Filename C:\Documents and Settings\Korisnik\Desktop\Encoded\Dance Or Die\Time Zero\04 - Endzeit.wav

     Pre-gap length  0:00:02.50

     Peak level 97.7 %
     Track quality 100.0 %
     Test CRC 6548F108
     Copy CRC 6548F108
     Accurately ripped (confidence 1)  [800507FB]
     Copy OK

All tracks accurately ripped

No errors occurred

End of status report
Код:
-----------------------

DON'T MODIFY THIS FILE

-----------------------

PERFORMER: auCDtect Task Manager, ver. 1.5.1RC4 build 1.5.1.5
Copyright (c) 2008-2010 y-soft. All rights reserved
http://y-soft.org

ANALYZER: auCDtect: CD records authenticity detector, version 0.8.2
Copyright (c) 2004 Oleg Berngardt. All rights reserved.
Copyright (c) 2004 Alexander Djourik. All rights reserved.

FILE: 01 - Time Zero (low-mix).flac
  Size: 32185929 Hash: 087A68B591B23E8AE2237CC3EA7CE1A3 Accuracy: -m0
  Conclusion: MPEG 95%
  Signature: 8E54DB1374808B9663BB82D0B381F69D18291040
FILE: 02 - Count The Seconds.flac
  Size: 29764592 Hash: C7B085E40D1714DC4ECF86C61708EDC2 Accuracy: -m0
  Conclusion: CDDA 100%
  Signature: 6892D23D351FFE7AEF68C42F383DE428BA6CF789
FILE: 03 - Time (high-mix club).flac
  Size: 33148436 Hash: 69956E39DA675A6A88E85713F78050A7 Accuracy: -m0
  Conclusion: CDDA 100%
  Signature: 1464936B05EF7DCE24869FF272E6BCB7B4988686
FILE: 04 - Endzeit.flac
  Size: 26465011 Hash: 0A9241BC24E637B3C6367872FAAEAE51 Accuracy: -m0
  Conclusion: CDDA 100%
  Signature: 1BC591691768B9C160D6C3D12F8AC9097BC98763
Image
Продолжительность: 00:24:50

Треклист:
01. Relationshit (Original Mix) (03:52)
02. Relationshit (Extended Mix) (05:46)
03. Relationshit (Terranova Mix Part One) (05:30)
04. Relationshit (Terranova Mix Part Two) (05:38)
05. Relationshit (Seperation Mix) (04:01)

Код:
Exact Audio Copy V0.99 prebeta 4 from 23. January 2008

EAC extraction logfile from 17. December 2010, 14:54

Dance Or Die / Relationshit

Used drive  : Optiarc BD ROM BC-5500A   Adapter: 0  ID: 0

Read mode               : Secure
Utilize accurate stream : Yes
Defeat audio cache      : Yes
Make use of C2 pointers : No

Read offset correction                      : 48
Overread into Lead-In and Lead-Out          : No
Fill up missing offset samples with silence : Yes
Delete leading and trailing silent blocks   : No
Null samples used in CRC calculations       : Yes
Used interface                              : Native Win32 interface for Win NT & 2000
Gap handling                                : Appended to previous track

Used output format              : User Defined Encoder
Selected bitrate                : 128 kBit/s
Quality                         : High
Add ID3 tag                     : No
Command line compressor         : C:\Program Files\Exact Audio Copy\Flac\flac.exe
Additional command line options : -8 -V -T "ARTIST=%a" -T "TITLE=%t" -T "ALBUM=%g" -T "DATE=%y" -T "TRACKNUMBER=%n" -T "GENRE=%m" -T "COMMENT=EAC FLAC -8" %s

TOC of the extracted CD

     Track |   Start  |  Length  | Start sector | End sector
    ---------------------------------------------------------
        1  |  0:00.00 |  3:52.70 |         0    |    17469
        2  |  3:52.70 |  5:46.72 |     17470    |    43491
        3  |  9:39.67 |  5:30.38 |     43492    |    68279
        4  | 15:10.30 |  5:38.17 |     68280    |    93646
        5  | 20:48.47 |  4:01.50 |     93647    |   111771

Track  1

     Filename D:\Dance Or Die - 1997 - Relationshit\01 - Relationshit (Original Mix).wav

     Pre-gap length  0:00:02.00

     Peak level 98.3 %
     Track quality 100.0 %
     Test CRC 4904D607
     Copy CRC 4904D607
     Accurately ripped (confidence 3)  [823D55BE]
     Copy OK

Track  2

     Filename D:\Dance Or Die - 1997 - Relationshit\02 - Relationshit (Extended Mix).wav

     Pre-gap length  0:00:01.53

     Peak level 98.0 %
     Track quality 100.0 %
     Test CRC 73E41B94
     Copy CRC 73E41B94
     Accurately ripped (confidence 3)  [F4000DC7]
     Copy OK

Track  3

     Filename D:\Dance Or Die - 1997 - Relationshit\03 - Relationshit (Terranova Mix Part One).wav

     Pre-gap length  0:00:01.47

     Peak level 98.0 %
     Track quality 100.0 %
     Test CRC 5C86E4C4
     Copy CRC 5C86E4C4
     Accurately ripped (confidence 3)  [4ACD5D88]
     Copy OK

Track  4

     Filename D:\Dance Or Die - 1997 - Relationshit\04 - Relationshit (Terranova Mix Part Two).wav

     Pre-gap length  0:00:01.73

     Peak level 98.2 %
     Track quality 100.0 %
     Test CRC 3BD7C09F
     Copy CRC 3BD7C09F
     Accurately ripped (confidence 3)  [6B4B2EAD]
     Copy OK

Track  5

     Filename D:\Dance Or Die - 1997 - Relationshit\05 - Relationshit (Seperation Mix).wav

     Pre-gap length  0:00:01.72

     Peak level 98.1 %
     Track quality 100.0 %
     Test CRC 77CD0C1E
     Copy CRC 77CD0C1E
     Accurately ripped (confidence 3)  [B9A183B0]
     Copy OK

All tracks accurately ripped

No errors occurred

End of status report
Код:
-----------------------

DON'T MODIFY THIS FILE

-----------------------

PERFORMER: auCDtect Task Manager, ver. 1.5.1RC4 build 1.5.1.5
Copyright (c) 2008-2010 y-soft. All rights reserved
http://y-soft.org

ANALYZER: auCDtect: CD records authenticity detector, version 0.8.2
Copyright (c) 2004 Oleg Berngardt. All rights reserved.
Copyright (c) 2004 Alexander Djourik. All rights reserved.

FILE: 01 - Relationshit (Original Mix).flac
  Size: 27818971 Hash: C53B4DAD933FA6E7CC5D15404B314F3D Accuracy: -m0
  Conclusion: CDDA 100%
  Signature: 413CFF1C4352FCF6C10F252DC06103A70ED1BEE0
FILE: 02 - Relationshit (Extended Mix).flac
  Size: 42368023 Hash: 22174204042EE0B5C6171E1CB4DA9853 Accuracy: -m0
  Conclusion: CDDA 100%
  Signature: 11D5058A4D604BC8371B1B3F0278D364DCFD9DC6
FILE: 03 - Relationshit (Terranova Mix Part One).flac
  Size: 37566749 Hash: 1960142E7ABEA1BE0D06D878828668AD Accuracy: -m0
  Conclusion: CDDA 100%
  Signature: A63E8C93827E9A51571C8E137834D9FA06C8AE42
FILE: 04 - Relationshit (Terranova Mix Part Two).flac
  Size: 39156948 Hash: 19F7F57A818A4EEC00A81A8759FAE84A Accuracy: -m0
  Conclusion: MPEG 95%
  Signature: 8D008842CCF719CFEEE1E489B32EDB64057F6853
FILE: 05 - Relationshit (Seperation Mix).flac
  Size: 31457404 Hash: 6FA4CCAF49FE771D0B99D145A5D6E1A5 Accuracy: -m0
  Conclusion: CDDA 100%
  Signature: A17EC34D7483122FAFD57E1BC754CEDEFC4A2641
Image
Продолжительность: 00:52:23

Треклист:
01. Dehumanizer (04:33)
02. Teenagemakup (03:13)
03. Relationshit (04:33)
04. Fruhstuck im Freien (02:59)
05. Liquid Sky (03:29)
06. Crap (04:11)
07. Building Another Babylon (04:21)
08. Space Elevator (05:02)
09. Give Me Back The World (04:13)
10. Replicant (03:08)
11. 42 (03:11)
12. Party Human (04:25)
13. In Your Room (Bonustrack) (04:59)

Код:
Exact Audio Copy V0.99 prebeta 1 from 25. May 2007

Отчёт EAC об извлечении, выполненном 6. июля 2008, 16:50

Dance or Die / Dehumanizer

Дисковод: PIONEER DVD-RW  DVR-111D   Adapter: 0  ID: 0

Режим чтения                 : Достоверность
Использование точного потока : Да
Отключение кэша аудио        : Да
Использование указателей C2  : Нет

Коррекция смещения при чтении                 : 48
Способность читать области Lead-in и Lead-out : Нет
Заполнение пропущенных сэмплов тишиной        : Да
Удаление блоков с тишиной в начале и конце    : Нет
Интерфейс                                     : Встроенный Win32-интерфейс для Win NT/2000

Выходной формат          : Пользовательский кодировщик
Выбранный битрейт        : 1024 kBit/s
Качество                 : Высокий
Добавление ID3-тэга      : Да
Утилита сжатия           : C:\Program Files\Exact Audio Copy\FLAC\FLAC.EXE
Дополнительные параметры : -6 -V -T "ARTIST=%a" -T "TITLE=%t" -T "ALBUM=%g" -T "DATE=%y" -T "TRACKNUMBER=%n" -T "GENRE=%m" -T "COMMENT=%e" %s -o %d

TOC извлечённого CD

     Трек |   Старт  | Длительность | Начальный сектор | Конечный сектор
    ---------------------------------------------------------------------
       1  |  0:00.00 |    4:33.48   |           0      |      20522
       2  |  4:33.48 |    3:13.40   |       20523      |      35037
       3  |  7:47.13 |    4:33.61   |       35038      |      55573
       4  | 12:20.74 |    2:59.48   |       55574      |      69046
       5  | 15:20.47 |    3:29.31   |       69047      |      84752
       6  | 18:50.03 |    4:11.73   |       84753      |     103650
       7  | 23:02.01 |    4:21.04   |      103651      |     123229
       8  | 27:23.05 |    5:02.21   |      123230      |     145900
       9  | 32:25.26 |    4:13.04   |      145901      |     164879
      10  | 36:38.30 |    3:08.30   |      164880      |     179009
      11  | 39:46.60 |    3:11.23   |      179010      |     193357
      12  | 42:58.08 |    4:25.67   |      193358      |     213299
      13  | 47:24.00 |    5:00.00   |      213300      |     235799

Характеристики диапазона извлечения и сообщения об ошибках

Выбранный диапазон

     Имя файла D:\123\Dance or Die - Dehumanizer [1998]\Dance or Die - Dehumanizer.wav

     Пиковый уровень 99.8 %
     Качество диапазона 99.9 %
     CRC теста 2FE77BB1
     CRC копии 2FE77BB1
     Копирование... OK

Ошибок не произошло

Конец отчёта
Код:
-----------------------

DON'T MODIFY THIS FILE

-----------------------

PERFORMER: auCDtect Task Manager, ver. 1.5.1RC4 build 1.5.1.5
Copyright (c) 2008-2010 y-soft. All rights reserved
http://y-soft.org

ANALYZER: auCDtect: CD records authenticity detector, version 0.8.2
Copyright (c) 2004 Oleg Berngardt. All rights reserved.
Copyright (c) 2004 Alexander Djourik. All rights reserved.

FILE: (01) [Dance or Die] Dehumanizer.flac
  Size: 33645730 Hash: C4CECE687C2CA5A0ECDCAAF47F3608BD Accuracy: -m0
  Conclusion: CDDA 100%
  Signature: 2E7C33CD9FA722ADB46AA7ED68A2CE5CBA93CFF1
FILE: (02) [Dance or Die] Teenagemakup.flac
  Size: 24345710 Hash: 3A41F96F0246057A2475BCCEE5FA6593 Accuracy: -m0
  Conclusion: CDDA 99%
  Signature: 14CA493E612C2068D52A130DF2235B79E5E116CD
FILE: (03) [Dance or Die] Relationshit.flac
  Size: 34461230 Hash: 719F94D22972F667ACC625A100EF7C69 Accuracy: -m0
  Conclusion: CDDA 100%
  Signature: BCF129FC50D6909365C719060B9A1D29F0F14F3B
FILE: (04) [Dance or Die] Fruhstuck im Freien.flac
  Size: 17032932 Hash: D3B918D4979692D14ACDBF244F1E3622 Accuracy: -m0
  Conclusion: CDDA 100%
  Signature: 0E45A9A40804842F851796F1F064D286529481CA
FILE: (05) [Dance or Die] Liquid Sky.flac
  Size: 24570112 Hash: 06E9EEFCE26C747143BD2C19CAA799DB Accuracy: -m0
  Conclusion: CDDA 100%
  Signature: 1BE2981CA05911B0153F73A7EAFF150C44DDC660
FILE: (06) [Dance or Die] Crap.flac
  Size: 32144693 Hash: B170E2981A3F4ADF79B225CEB6F84FC9 Accuracy: -m0
  Conclusion: CDDA 100%
  Signature: 83E3FEC911E947A54034C3CD53CE7793B4D3AF0F
FILE: (07) [Dance or Die] Building Another Babylon.flac
  Size: 31185716 Hash: 2C2DB0CEFF5F2EE6BF9E2E966E94E411 Accuracy: -m0
  Conclusion: CDDA 100%
  Signature: 2E79BCC1B5A2234CFBE6CAD11B384F2D00E67B00
FILE: (08) [Dance or Die] Space Elevator.flac
  Size: 28678201 Hash: 9572C32BB2C90F210BA64AC6B31F4177 Accuracy: -m0
  Conclusion: CDDA 100%
  Signature: 6CAE30D9CD72CA68D59F6DFF1CCDEA93571B6F50
FILE: (09) [Dance or Die] Give Me Back The World.flac
  Size: 32525794 Hash: 4C9C1AEC2E74C7E9B6E012F83A58B7EE Accuracy: -m0
  Conclusion: CDDA 100%
  Signature: 42FB9499C93CC0B8464853BCD91FC81A2D21F2C7
FILE: (10) [Dance or Die] Replicant.flac
  Size: 24399009 Hash: EC710133AB96506AD2B8EDCE6DE7998F Accuracy: -m0
  Conclusion: CDDA 99%
  Signature: 1C6804050B2ECE5DABFA946A49E899AF7D309EDA
FILE: (11) [Dance or Die] 42.flac
  Size: 19850138 Hash: 2D4E48FCE20C77091FF924209D61E380 Accuracy: -m0
  Conclusion: CDDA 100%
  Signature: 5A034018A692106DECFCB06EF428967963970C9F
FILE: (12) [Dance or Die] Party Human.flac
  Size: 29712362 Hash: B994BD03CC37376BE8B95AC3872318A5 Accuracy: -m0
  Conclusion: CDDA 99%
  Signature: CDBD677370C3BA39D320AB0E08781009EEBED4A5
FILE: (13) [Dance or Die] In Your Room (Bonustrack).flac
  Size: 34102958 Hash: 3190FB8DC9167855F3FCA1C113CD358C Accuracy: -m0
  Conclusion: CDDA 100%
  Signature: 4CCE1CD0D015D632C8105800745AF5BDED7E4F3A
Image
Продолжительность: 00:22:16

Треклист:
01. Teenagemakeup (Original Mix) (03:13)
02. Teenagemakeup (AWeX Remix) (06:43)
03. Teenagemakeup (Four Ears Mix) (07:11)
04. Teenagemakeup (N.Y.Gard Mix) (05:08)

Код:
Exact Audio Copy V0.99 prebeta 5 from 4. May 2009

Отчёт EAC об извлечении, выполненном 23. марта 2011, 19:43

Dance Or Die / Teenagemakeup

Дисковод: _NEC    DVD_RW ND-4550A   Adapter: 0  ID: 2

Режим чтения                 : Достоверность
Использование точного потока : Да
Отключение кэша аудио        : Да
Использование указателей C2  : Нет

Коррекция смещения при чтении                     : 48
Способность читать области Lead-in и Lead-out     : Нет
Заполнение пропущенных сэмплов тишиной            : Да
Удаление блоков с тишиной в начале и конце        : Нет
При вычислениях CRC использовались нулевые сэмплы : Да
Интерфейс                                         : Встроенный Win32-интерфейс для Win NT/2000

Выходной формат : Внутренние WAV-операции
Формат сэмплов  : 44.100 Гц; 16 бит; стерео

TOC извлечённого CD

     Трек |   Старт  | Длительность | Начальный сектор | Конечный сектор
    ---------------------------------------------------------------------
       1  |  0:00.00 |    3:14.45   |           0      |      14594
       2  |  3:14.45 |    6:45.50   |       14595      |      45019
       3  | 10:00.20 |    7:12.53   |       45020      |      77472
       4  | 17:12.73 |    5:08.17   |       77473      |     100589
       5  | 24:53.15 |   18:23.32   |      111990      |     194746

Характеристики диапазона извлечения и сообщения об ошибках

Выбранный диапазон

     Имя файла D:\Music\Dance Or Die - Teenagemakeup (Single)\Dance Or Die - Teenagemakeup.wav

     Пиковый уровень 99.6 %
     Качество диапазона 99.9 %
     CRC теста 1DE96C1B
     CRC копии 1DE96C1B
     Копирование... OK

Ошибок не произошло

AccurateRip: сводка

Трек  1  точное извлечение (доверие 2)  [BA521CDC]
Трек  2  точное извлечение (доверие 2)  [EBFDE727]
Трек  3  точное извлечение (доверие 2)  [C8130F67]
Трек  4  точное извлечение (доверие 2)  [EB2CB661]

Все треки извлечены точно

Конец отчёта
Код:
-----------------------

DON'T MODIFY THIS FILE

-----------------------

PERFORMER: auCDtect Task Manager, ver. 1.5.1RC4 build 1.5.1.5
Copyright (c) 2008-2010 y-soft. All rights reserved
http://y-soft.org

ANALYZER: auCDtect: CD records authenticity detector, version 0.8.2
Copyright (c) 2004 Oleg Berngardt. All rights reserved.
Copyright (c) 2004 Alexander Djourik. All rights reserved.

FILE: (01) [Dance Or Die] Teenagemakeup (Original Mix).flac
  Size: 24300778 Hash: 9D912B3DC8AF93289FCC3EAEB19338FF Accuracy: -m0
  Conclusion: CDDA 100%
  Signature: 8DF988C3488F3225AE95E799259B7880FD072E2A
FILE: (02) [Dance Or Die] Teenagemakeup (AWeX Remix).flac
  Size: 48698913 Hash: 5EF7907BC2B979862BFC155AAAFA7100 Accuracy: -m0
  Conclusion: CDDA 100%
  Signature: 22FDF48AE8B84F76B5F4F43A407EEB6811D6C7D4
FILE: (03) [Dance Or Die] Teenagemakeup (Four Ears Mix).flac
  Size: 42308767 Hash: 6A212B9776E42F9F8A53376CE98B5EFB Accuracy: -m0
  Conclusion: CDDA 100%
  Signature: CD6C4B8ADC2BD28A2A82D44A89BAA73F66FB9A4B
FILE: (04) [Dance Or Die] Teenagemakeup (N.Y.Gard Mix).flac
  Size: 38477033 Hash: 64294A2FE90F506B410542B3DEE57AD1 Accuracy: -m0
  Conclusion: CDDA 100%
  Signature: B990F594F3309809AD357FFFBC007D465DD8FA6D
Image
Продолжительность: 01:06:49

Треклист:
01. Schlafendeenergie (01:47)
02. Seven (04:28)
03. Aliens Electric (04:02)
04. Everydaze (03:36)
05. Worm (05:21)
06. Captain Nemo (02:50)
07. World On Fire (04:18)
08. Freeze (05:39)
09. Dealbreaker (04:02)
10. Follow Me (04:19)
11. Secret Of The Sun (04:03)
12. Reality Suxxx (03:19)
13. Dial That No. (04:02)
14. Free (05:11)
15. Retroboy (09:44)

Код:
Exact Audio Copy V0.99 prebeta 4 from 23. January 2008

EAC extraction logfile from 10. September 2010, 21:59

Dance Or Die / Schlafendeenergie

Used drive  : HL-DT-STDVD-RAM GH22NP20   Adapter: 0  ID: 0

Read mode               : Secure
Utilize accurate stream : Yes
Defeat audio cache      : Yes
Make use of C2 pointers : No

Read offset correction                      : 102
Overread into Lead-In and Lead-Out          : No
Fill up missing offset samples with silence : Yes
Delete leading and trailing silent blocks   : No
Null samples used in CRC calculations       : Yes
Used interface                              : Native Win32 interface for Win NT & 2000
Gap handling                                : Appended to previous track

Used output format              : User Defined Encoder
Selected bitrate                : 768 kBit/s
Quality                         : High
Add ID3 tag                     : No
Command line compressor         : C:\Program Files (x86)\Exact Audio Copy\FLAC\FLAC.EXE
Additional command line options : -6 -V -T "ARTIST=%a" -T "TITLE=%t" -T "ALBUM=%g" -T "DATE=%y" -T "TRACKNUMBER=%n" -T "GENRE=%m" -T "COMMENT=%e" %s -o %d

TOC of the extracted CD

     Track |   Start  |  Length  | Start sector | End sector
    ---------------------------------------------------------
        1  |  0:00.00 |  1:47.36 |         0    |     8060
        2  |  1:47.36 |  4:28.21 |      8061    |    28181
        3  |  6:15.57 |  4:02.47 |     28182    |    46378
        4  | 10:18.29 |  3:36.60 |     46379    |    62638
        5  | 13:55.14 |  5:21.35 |     62639    |    86748
        6  | 19:16.49 |  2:50.73 |     86749    |    99571
        7  | 22:07.47 |  4:18.40 |     99572    |   118961
        8  | 26:26.12 |  5:39.37 |    118962    |   144423
        9  | 32:05.49 |  4:02.39 |    144424    |   162612
       10  | 36:08.13 |  4:19.41 |    162613    |   182078
       11  | 40:27.54 |  4:03.71 |    182079    |   200374
       12  | 44:31.50 |  3:19.38 |    200375    |   215337
       13  | 47:51.13 |  4:02.10 |    215338    |   233497
       14  | 51:53.23 |  5:11.28 |    233498    |   256850
       15  | 57:04.51 |  9:44.34 |    256851    |   300684

Track  1

     Filename F:\01 - Schlafendeenergie.wav

     Pre-gap length  0:00:02.00

     Peak level 70.9 %
     Track quality 100.0 %
     Test CRC 61ECB9E6
     Copy CRC 61ECB9E6
     Cannot be verified as accurate (confidence 7)  [E30E394F], AccurateRip returned [0FADD6A7]
     Copy OK

Track  2

     Filename F:\02 - Seven.wav

     Peak level 100.0 %
     Track quality 99.9 %
     Test CRC C416C6EC
     Copy CRC C416C6EC
     Cannot be verified as accurate (confidence 7)  [4C463669], AccurateRip returned [3ED9187C]
     Copy OK

Track  3

     Filename F:\03 - Aliens Electric.wav

     Peak level 100.0 %
     Track quality 100.0 %
     Test CRC B83A51A7
     Copy CRC B83A51A7
     Cannot be verified as accurate (confidence 7)  [FE7E37E6], AccurateRip returned [5DB9C578]
     Copy OK

Track  4

     Filename F:\04 - Everydaze.wav

     Peak level 100.0 %
     Track quality 99.9 %
     Test CRC A16F504C
     Copy CRC A16F504C
     Cannot be verified as accurate (confidence 7)  [64794DD3], AccurateRip returned [43AA5FFE]
     Copy OK

Track  5

     Filename F:\05 - Worm.wav

     Pre-gap length  0:00:00.37

     Peak level 100.0 %
     Track quality 100.0 %
     Test CRC C78613C1
     Copy CRC C78613C1
     Cannot be verified as accurate (confidence 7)  [6AA09159], AccurateRip returned [495323B0]
     Copy OK

Track  6

     Filename F:\06 - Captain Nemo.wav

     Peak level 99.9 %
     Track quality 100.0 %
     Test CRC 09A22CE9
     Copy CRC 09A22CE9
     Cannot be verified as accurate (confidence 7)  [163C3B6E], AccurateRip returned [09E9F153]
     Copy OK

Track  7

     Filename F:\07 - World On Fire.wav

     Peak level 100.0 %
     Track quality 100.0 %
     Test CRC 31E20B26
     Copy CRC 31E20B26
     Cannot be verified as accurate (confidence 7)  [141FD3B3], AccurateRip returned [DE13A326]
     Copy OK

Track  8

     Filename F:\08 - Freeze.wav

     Peak level 99.9 %
     Track quality 100.0 %
     Test CRC 280F1ECD
     Copy CRC 280F1ECD
     Cannot be verified as accurate (confidence 7)  [003B9BE5], AccurateRip returned [C1B86935]
     Copy OK

Track  9

     Filename F:\09 - Dealbreaker.wav

     Peak level 100.0 %
     Track quality 100.0 %
     Test CRC 193D975F
     Copy CRC 193D975F
     Cannot be verified as accurate (confidence 7)  [D99DC01D], AccurateRip returned [1AC73BA7]
     Copy OK

Track 10

     Filename F:\10 - Follow Me.wav

     Peak level 100.0 %
     Track quality 100.0 %
     Test CRC 124EB66C
     Copy CRC 124EB66C
     Cannot be verified as accurate (confidence 7)  [4001ED70], AccurateRip returned [FC2A7FDB]
     Copy OK

Track 11

     Filename F:\11 - Secret Of The Sun.wav

     Pre-gap length  0:00:00.29

     Peak level 95.1 %
     Track quality 100.0 %
     Test CRC A73CE9CF
     Copy CRC A73CE9CF
     Cannot be verified as accurate (confidence 7)  [B1955095], AccurateRip returned [7A9712FD]
     Copy OK

Track 12

     Filename F:\12 - Reality Suxxx.wav

     Pre-gap length  0:00:00.64

     Peak level 98.8 %
     Track quality 100.0 %
     Test CRC 108567F1
     Copy CRC 108567F1
     Cannot be verified as accurate (confidence 7)  [E97F488B], AccurateRip returned [C03E9EB3]
     Copy OK

Track 13

     Filename F:\13 - Dial That No..wav

     Pre-gap length  0:00:00.23

     Peak level 97.3 %
     Track quality 100.0 %
     Test CRC 4EE32C54
     Copy CRC 4EE32C54
     Cannot be verified as accurate (confidence 7)  [58D782A4], AccurateRip returned [74BE5E29]
     Copy OK

Track 14

     Filename F:\14 - Free.wav

     Peak level 100.0 %
     Track quality 100.0 %
     Test CRC D820AFCB
     Copy CRC D820AFCB
     Cannot be verified as accurate (confidence 7)  [93AA169A], AccurateRip returned [FC6DE167]
     Copy OK

Track 15

     Filename F:\15 - Retroboy.wav

     Peak level 100.0 %
     Track quality 99.9 %
     Test CRC 2E24C49F
     Copy CRC 2E24C49F
     Cannot be verified as accurate (confidence 7)  [131DCA0A], AccurateRip returned [CD72A13B]
     Copy OK

No tracks could be verified as accurate
You may have a different pressing from the one(s) in the database

No errors occurred

End of status report
Код:
-----------------------

DON'T MODIFY THIS FILE

-----------------------

PERFORMER: auCDtect Task Manager, ver. 1.5.1RC4 build 1.5.1.5
Copyright (c) 2008-2010 y-soft. All rights reserved
http://y-soft.org

ANALYZER: auCDtect: CD records authenticity detector, version 0.8.2
Copyright (c) 2004 Oleg Berngardt. All rights reserved.
Copyright (c) 2004 Alexander Djourik. All rights reserved.

FILE: 01 - Schlafendeenergie.flac
  Size: 8882269 Hash: 924F1E1DD4528C97E965092244C87864 Accuracy: -m0
  Conclusion: CDDA 100%
  Signature: B7522770E64B85D771155647DA65DA02891AA3DE
FILE: 02 - Seven.flac
  Size: 33664351 Hash: 89A47B69A0C50E5B497EBEFE2B60B486 Accuracy: -m0
  Conclusion: CDDA 100%
  Signature: EE9C9D27523F9E1981D690C1B7184D4DF7A19D75
FILE: 03 - Aliens Electric.flac
  Size: 29542397 Hash: CFA7AAEBA3011C6855D8AAC2B120C671 Accuracy: -m0
  Conclusion: CDDA 100%
  Signature: 59AE80D15E2016E09334BD8923EDB335F4A2774A
FILE: 04 - Everydaze.flac
  Size: 26403387 Hash: 0B2C196A6A95962BC0EB649967CA8ADD Accuracy: -m0
  Conclusion: CDDA 100%
  Signature: 121EFAA2890F99107C97B933923608C80E846DB2
FILE: 05 - Worm.flac
  Size: 36995533 Hash: D1D11B1D3F826396F554B9969236DA01 Accuracy: -m0
  Conclusion: CDDA 100%
  Signature: AF31D78E95D025D32AE461C6E6AF22B482BED2AC
FILE: 06 - Captain Nemo.flac
  Size: 18083030 Hash: FECC417F892909A8D70DDF1556BA3E27 Accuracy: -m0
  Conclusion: CDDA 99%
  Signature: CB35E7959F291C715A22B987810164C2AACF14FB
FILE: 07 - World On Fire.flac
  Size: 33519349 Hash: 891C840B3160F4931937C787AE17D62B Accuracy: -m0
  Conclusion: CDDA 99%
  Signature: 40032666A1056A22A87E36078D550E70C04986AA
FILE: 08 - Freeze.flac
  Size: 38450996 Hash: 45C9B788C1C7E95303818759906B68AB Accuracy: -m0
  Conclusion: CDDA 100%
  Signature: A6887051704F510E673D70D2B739E5CA0D07AF65
FILE: 09 - Dealbreaker.flac
  Size: 23967610 Hash: A8BF84265EEF901FFFE86A9D0D3289F7 Accuracy: -m0
  Conclusion: CDDA 100%
  Signature: 1075DC55011D7461AA87CCF575B1550159E5E5BE
FILE: 10 - Follow Me.flac
  Size: 32837677 Hash: 8A3251E9C5339D187B4505D238B2E588 Accuracy: -m0
  Conclusion: CDDA 100%
  Signature: 099689EBBC45416EFE2C1756E8BA53BCC6C48C72
FILE: 11 - Secret Of The Sun.flac
  Size: 28883716 Hash: A2EA1F1C856DBBE7F616DB153AA8F60A Accuracy: -m0
  Conclusion: CDDA 100%
  Signature: 48DACAAC128CF97C0DB72654708A1C28DAD72FCF
FILE: 12 - Reality Suxxx.flac
  Size: 23596866 Hash: BCB54F109283F5C9F7EA87D34201DD3F Accuracy: -m0
  Conclusion: CDDA 99%
  Signature: 04995373517B78CD54DE58C5861CD408CE939514
FILE: 13 - Dial That No..flac
  Size: 28408980 Hash: 55BADC7AE2F46FB7E764AE74C6F209EC Accuracy: -m0
  Conclusion: CDDA 100%
  Signature: 546C0DA40A8000687E65D8DA2B98C088F49C6A05
FILE: 14 - Free.flac
  Size: 30183059 Hash: 9477FB6CC8D94B165E7F149793421335 Accuracy: -m0
  Conclusion: CDDA 100%
  Signature: 6C6C333F438985530B4C48F306EB9DE947324668
FILE: 15 - Retroboy.flac
  Size: 43288613 Hash: 61DD74DAA65D368551348CA22952855E Accuracy: -m0
  Conclusion: CDDA 100%
  Signature: 52147CE087F42302D8C205349740C98B7798CFE1
Image
Продолжительность: 01:33:35

Треклист:
CD1: (01:09:02)
01. Helios (05:26)
02. Nostradamnation (04:39)
03. Northern Winter (03:59)
04. Sleeping In Your Grave (05:57)
05. Novus Ordo Seclorum (03:01)
06. Tuatha De Danann (05:51)
07. 432 (03:49)
08. Purgatory (05:56)
09. Empty Heart (04:21)
10. Mr. Armageddon (03:46)
11. This Censored Innocence (04:31)
12. Centropolis (05:58)
13. W.T.E.O.T.C. (04:17)
14. Hello To You Good Sense (03:27)
15. Lo Boy Truck (03:58)
CD2: 00:24:32
01. Time Zero (Dead Line Mix) (04:15)
02. Dance Or Die (Solitary Experimants Remix) (05:08)
03. Psychoburbia (NWO Mix) (04:05)
04. Friendly Fire (Miss Construction Remix) (05:51)
05. Free (Instrumental Version) (05:10)

Код:
Exact Audio Copy V0.99 prebeta 5 from 4. May 2009

EAC extraction logfile from 6. July 2011, 1:56

Dance Or Die / Nostradamnation (CD1)

Used drive  : ASUS    DRW-24B3LT   Adapter: 2  ID: 0

Read mode               : Secure
Utilize accurate stream : Yes
Defeat audio cache      : Yes
Make use of C2 pointers : No

Read offset correction                      : 6
Overread into Lead-In and Lead-Out          : No
Fill up missing offset samples with silence : Yes
Delete leading and trailing silent blocks   : No
Null samples used in CRC calculations       : Yes
Used interface                              : Native Win32 interface for Win NT & 2000
Gap handling                                : Appended to previous track

Used output format              : User Defined Encoder
Selected bitrate                : 1024 kBit/s
Quality                         : High
Add ID3 tag                     : No
Command line compressor         : C:\Program Files\Exact Audio Copy\Flac\flac.exe
Additional command line options : -8 -V -T "ARTIST=%a" -T "TITLE=%t" -T "ALBUM=%g" -T "DATE=%y" -T "TRACKNUMBER=%n" -T "GENRE=%m" -T "COMMENT=EAC FLAC -8" %s

TOC of the extracted CD

     Track |   Start  |  Length  | Start sector | End sector
    ---------------------------------------------------------
        1  |  0:00.00 |  5:26.66 |         0    |    24515
        2  |  5:26.66 |  4:39.24 |     24516    |    45464
        3  | 10:06.15 |  3:59.32 |     45465    |    63421
        4  | 14:05.47 |  5:57.04 |     63422    |    90200
        5  | 20:02.51 |  3:01.39 |     90201    |   103814
        6  | 23:04.15 |  5:51.31 |    103815    |   130170
        7  | 28:55.46 |  3:49.56 |    130171    |   147401
        8  | 32:45.27 |  5:56.39 |    147402    |   174140
        9  | 38:41.66 |  4:21.07 |    174141    |   193722
       10  | 43:02.73 |  3:46.23 |    193723    |   210695
       11  | 46:49.21 |  4:31.30 |    210696    |   231050
       12  | 51:20.51 |  5:58.35 |    231051    |   257935
       13  | 57:19.11 |  4:17.67 |    257936    |   277277
       14  | 61:37.03 |  3:27.30 |    277278    |   292832
       15  | 65:04.33 |  3:58.05 |    292833    |   310687

Track  1

     Filename O:\LOSSLESS\Раздача\DANCE OR DIE (2011) Nostradamnation\Nostradamnation (CD1)\01. Helios.wav

     Pre-gap length  0:00:02.00

     Peak level 99.4 %
     Track quality 100.0 %
     Test CRC 7ECE6B1C
     Copy CRC 7ECE6B1C
     Track not present in AccurateRip database
     Copy OK

Track  2

     Filename O:\LOSSLESS\Раздача\DANCE OR DIE (2011) Nostradamnation\Nostradamnation (CD1)\02. Nostradamnation.wav

     Pre-gap length  0:00:01.65

     Peak level 99.4 %
     Track quality 100.0 %
     Test CRC 54E7E335
     Copy CRC 54E7E335
     Track not present in AccurateRip database
     Copy OK

Track  3

     Filename O:\LOSSLESS\Раздача\DANCE OR DIE (2011) Nostradamnation\Nostradamnation (CD1)\03. Northern Winter.wav

     Pre-gap length  0:00:01.38

     Peak level 99.4 %
     Track quality 99.9 %
     Test CRC A3BF0E87
     Copy CRC A3BF0E87
     Track not present in AccurateRip database
     Copy OK

Track  4

     Filename O:\LOSSLESS\Раздача\DANCE OR DIE (2011) Nostradamnation\Nostradamnation (CD1)\04. Sleeping In Your Grave.wav

     Pre-gap length  0:00:00.22

     Peak level 99.4 %
     Track quality 100.0 %
     Test CRC E4B3FEC3
     Copy CRC E4B3FEC3
     Track not present in AccurateRip database
     Copy OK

Track  5

     Filename O:\LOSSLESS\Раздача\DANCE OR DIE (2011) Nostradamnation\Nostradamnation (CD1)\05. Novus Ordo Seclorum.wav

     Pre-gap length  0:00:02.82

     Peak level 99.4 %
     Track quality 100.0 %
     Test CRC 57A0028F
     Copy CRC 57A0028F
     Track not present in AccurateRip database
     Copy OK

Track  6

     Filename O:\LOSSLESS\Раздача\DANCE OR DIE (2011) Nostradamnation\Nostradamnation (CD1)\06. Tuatha De Danann.wav

     Pre-gap length  0:00:04.72

     Peak level 98.8 %
     Track quality 100.0 %
     Test CRC A3777DAF
     Copy CRC A3777DAF
     Track not present in AccurateRip database
     Copy OK

Track  7

     Filename O:\LOSSLESS\Раздача\DANCE OR DIE (2011) Nostradamnation\Nostradamnation (CD1)\07. 432.wav

     Pre-gap length  0:00:00.13

     Peak level 99.4 %
     Track quality 100.0 %
     Test CRC 6F47CF22
     Copy CRC 6F47CF22
     Track not present in AccurateRip database
     Copy OK

Track  8

     Filename O:\LOSSLESS\Раздача\DANCE OR DIE (2011) Nostradamnation\Nostradamnation (CD1)\08. Purgatory.wav

     Pre-gap length  0:00:00.56

     Peak level 99.4 %
     Track quality 100.0 %
     Test CRC ADE45806
     Copy CRC ADE45806
     Track not present in AccurateRip database
     Copy OK

Track  9

     Filename O:\LOSSLESS\Раздача\DANCE OR DIE (2011) Nostradamnation\Nostradamnation (CD1)\09. Empty Heart.wav

     Pre-gap length  0:00:02.26

     Peak level 100.0 %
     Track quality 100.0 %
     Test CRC 33A9D707
     Copy CRC 33A9D707
     Track not present in AccurateRip database
     Copy OK

Track 10

     Filename O:\LOSSLESS\Раздача\DANCE OR DIE (2011) Nostradamnation\Nostradamnation (CD1)\10. Mr. Armageddon.wav

     Peak level 99.4 %
     Track quality 100.0 %
     Test CRC FF914C6F
     Copy CRC FF914C6F
     Track not present in AccurateRip database
     Copy OK

Track 11

     Filename O:\LOSSLESS\Раздача\DANCE OR DIE (2011) Nostradamnation\Nostradamnation (CD1)\11. This Censored Innocence.wav

     Pre-gap length  0:00:02.44

     Peak level 99.4 %
     Track quality 100.0 %
     Test CRC 8813557F
     Copy CRC 8813557F
     Track not present in AccurateRip database
     Copy OK

Track 12

     Filename O:\LOSSLESS\Раздача\DANCE OR DIE (2011) Nostradamnation\Nostradamnation (CD1)\12. Centropolis.wav

     Pre-gap length  0:00:00.54

     Peak level 99.4 %
     Track quality 100.0 %
     Test CRC EE8F0473
     Copy CRC EE8F0473
     Track not present in AccurateRip database
     Copy OK

Track 13

     Filename O:\LOSSLESS\Раздача\DANCE OR DIE (2011) Nostradamnation\Nostradamnation (CD1)\13. W.T.E.O.T.C..wav

     Pre-gap length  0:00:01.84

     Peak level 99.9 %
     Track quality 100.0 %
     Test CRC 0638C233
     Copy CRC 0638C233
     Track not present in AccurateRip database
     Copy OK

Track 14

     Filename O:\LOSSLESS\Раздача\DANCE OR DIE (2011) Nostradamnation\Nostradamnation (CD1)\14. Hello To You Good Sense.wav

     Peak level 99.4 %
     Track quality 100.0 %
     Test CRC 44F83898
     Copy CRC 44F83898
     Track not present in AccurateRip database
     Copy OK

Track 15

     Filename O:\LOSSLESS\Раздача\DANCE OR DIE (2011) Nostradamnation\Nostradamnation (CD1)\15. Lo Boy Truck.wav

     Pre-gap length  0:00:00.76

     Peak level 99.8 %
     Track quality 99.9 %
     Test CRC 51DAB539
     Copy CRC 51DAB539
     Track not present in AccurateRip database
     Copy OK

None of the tracks are present in the AccurateRip database

No errors occurred

End of status report
Код:
-----------------------

DON'T MODIFY THIS FILE

-----------------------

PERFORMER: auCDtect Task Manager, ver. 1.5.1RC4 build 1.5.1.5
Copyright (c) 2008-2010 y-soft. All rights reserved
http://y-soft.org

ANALYZER: auCDtect: CD records authenticity detector, version 0.8.2
Copyright (c) 2004 Oleg Berngardt. All rights reserved.
Copyright (c) 2004 Alexander Djourik. All rights reserved.

FILE: 15. Lo Boy Truck.flac
  Size: 26208729 Hash: BEE1657F701BC1E4648A8C89B704834F Accuracy: -m0
  Conclusion: CDDA 100%
  Signature: A890E21A9CB3F4120BA32FB9A60E70D6F27E1EC7
FILE: 14. Hello To You Good Sense.flac
  Size: 23743269 Hash: E5B6D9D7650E7B976ACC074172D87684 Accuracy: -m0
  Conclusion: CDDA 100%
  Signature: 3F794B6E9E910EFCE5E36E61B8C7B6ED17137BDE
FILE: 13. W.T.E.O.T.C..flac
  Size: 36004478 Hash: A74487D2FC84DC0FB88F235D37937629 Accuracy: -m0
  Conclusion: CDDA 100%
  Signature: BE7C17B1CD061178B038DA85C2F1E51E662203A8
FILE: 12. Centropolis.flac
  Size: 46881548 Hash: 8DF0E10979BE3AA361EDDF7E272C87DF Accuracy: -m0
  Conclusion: CDDA 100%
  Signature: 33E6DB66E9BD09C6D8F8E141101241046825455D
FILE: 11. This Censored Innocence.flac
  Size: 35956512 Hash: 95370DFF0C0C5A761A610313695C1336 Accuracy: -m0
  Conclusion: CDDA 100%
  Signature: 43605BD96183E24FDE9DF8B3BDF9C3A149508D18
FILE: 10. Mr. Armageddon.flac
  Size: 30015098 Hash: 489AB078B33F8DDD6ECB5C82129432A9 Accuracy: -m0
  Conclusion: CDDA 100%
  Signature: 33EA2E2E46D6E50679393946C6E0A9483E1C801E
FILE: 09. Empty Heart.flac
  Size: 33280263 Hash: 6DFB450F68FCE1FE87DCC173D8600558 Accuracy: -m0
  Conclusion: CDDA 99%
  Signature: 81282F8426192611A5637915677805DC8B7ACD99
FILE: 08. Purgatory.flac
  Size: 48073474 Hash: 8C84515E456375D376CF6F38362E5EAE Accuracy: -m0
  Conclusion: CDDA 100%
  Signature: 2285E8B8B608B691638DC645D45F88DD377AE352
FILE: 07. 432.flac
  Size: 29644238 Hash: C8B428775D4535AFAE9ED52E3C7AE357 Accuracy: -m0
  Conclusion: CDDA 100%
  Signature: BF3CD0804C89A6B97A8B99F8BE452B40D74EBFA7
FILE: 06. Tuatha De Danann.flac
  Size: 42439704 Hash: 91CF7BBCC51493547950ABA4C0836577 Accuracy: -m0
  Conclusion: CDDA 100%
  Signature: BD490AC1B1F01E5AC8B9EE71F5842959215947F8
FILE: 05. Novus Ordo Seclorum.flac
  Size: 21398230 Hash: E372901B70E3500A8001DD1E13567DC9 Accuracy: -m0
  Conclusion: CDDA 99%
  Signature: 245EC5AD21FA27625C0425A9AABB67ABBF0C551C
FILE: 04. Sleeping In Your Grave.flac
  Size: 49319530 Hash: C6B73735A9693B46F42A533DBACE1D2B Accuracy: -m0
  Conclusion: CDDA 99%
  Signature: A16AD896B67F2318C51B2A509A2E89E335EB0BAB
FILE: 03. Northern Winter.flac
  Size: 33778413 Hash: F96464228E11F280699C100E5549BF1F Accuracy: -m0
  Conclusion: CDDA 99%
  Signature: EABC2D5B22609806AA2051ECA39D36C55E482CD9
FILE: 02. Nostradamnation.flac
  Size: 37853784 Hash: FD002E74CEB0C765101A609F6293FFE4 Accuracy: -m0
  Conclusion: CDDA 100%
  Signature: A154E9D85F859E4864C1412D4E3E229B4AA58AF4
FILE: 01. Helios.flac
  Size: 42555013 Hash: DBB1C5EB5D2ED3C1D860E0E44B574DE6 Accuracy: -m0
  Conclusion: CDDA 100%
  Signature: E67921AFBF615930E2EBE0C76A65059CF0DB3F09
Код:
Exact Audio Copy V0.99 prebeta 5 from 4. May 2009

EAC extraction logfile from 6. July 2011, 2:10

Dance Or Die / Nostradamnation (CD2)

Used drive  : ASUS    DRW-24B3LT   Adapter: 2  ID: 0

Read mode               : Secure
Utilize accurate stream : Yes
Defeat audio cache      : Yes
Make use of C2 pointers : No

Read offset correction                      : 6
Overread into Lead-In and Lead-Out          : No
Fill up missing offset samples with silence : Yes
Delete leading and trailing silent blocks   : No
Null samples used in CRC calculations       : Yes
Used interface                              : Native Win32 interface for Win NT & 2000
Gap handling                                : Appended to previous track

Used output format              : User Defined Encoder
Selected bitrate                : 1024 kBit/s
Quality                         : High
Add ID3 tag                     : No
Command line compressor         : C:\Program Files\Exact Audio Copy\Flac\flac.exe
Additional command line options : -8 -V -T "ARTIST=%a" -T "TITLE=%t" -T "ALBUM=%g" -T "DATE=%y" -T "TRACKNUMBER=%n" -T "GENRE=%m" -T "COMMENT=EAC FLAC -8" %s

TOC of the extracted CD

     Track |   Start  |  Length  | Start sector | End sector
    ---------------------------------------------------------
        1  |  0:00.00 |  4:15.67 |         0    |    19191
        2  |  4:15.67 |  5:08.27 |     19192    |    42318
        3  |  9:24.19 |  4:05.71 |     42319    |    60764
        4  | 13:30.15 |  5:51.55 |     60765    |    87144
        5  | 19:21.70 |  5:10.50 |     87145    |   110444

Track  1

     Filename O:\LOSSLESS\Раздача\DANCE OR DIE (2011) Nostradamnation\Nostradamnation (CD2)\01. Time Zero (Dead Line Mix).wav

     Pre-gap length  0:00:02.00

     Peak level 99.4 %
     Track quality 100.0 %
     Test CRC C0D0A3DE
     Copy CRC C0D0A3DE
     Track not present in AccurateRip database
     Copy OK

Track  2

     Filename O:\LOSSLESS\Раздача\DANCE OR DIE (2011) Nostradamnation\Nostradamnation (CD2)\02. Dance Or Die (Solitary Experimants Remix).wav

     Pre-gap length  0:00:01.93

     Peak level 99.4 %
     Track quality 100.0 %
     Test CRC 296AA41C
     Copy CRC 296AA41C
     Track not present in AccurateRip database
     Copy OK

Track  3

     Filename O:\LOSSLESS\Раздача\DANCE OR DIE (2011) Nostradamnation\Nostradamnation (CD2)\03. Psychoburbia (NWO Mix).wav

     Pre-gap length  0:00:01.74

     Peak level 99.4 %
     Track quality 100.0 %
     Test CRC F0FB4B7E
     Copy CRC F0FB4B7E
     Track not present in AccurateRip database
     Copy OK

Track  4

     Filename O:\LOSSLESS\Раздача\DANCE OR DIE (2011) Nostradamnation\Nostradamnation (CD2)\04. Friendly Fire (Miss Construction Remix).wav

     Pre-gap length  0:00:03.00

     Peak level 99.4 %
     Track quality 100.0 %
     Test CRC A1F17E2C
     Copy CRC A1F17E2C
     Track not present in AccurateRip database
     Copy OK

Track  5

     Filename O:\LOSSLESS\Раздача\DANCE OR DIE (2011) Nostradamnation\Nostradamnation (CD2)\05. Free (Instrumental Version).wav

     Pre-gap length  0:00:03.34

     Peak level 99.4 %
     Track quality 100.0 %
     Test CRC D77FAEC6
     Copy CRC D77FAEC6
     Track not present in AccurateRip database
     Copy OK

None of the tracks are present in the AccurateRip database

No errors occurred

End of status report
Код:
-----------------------

DON'T MODIFY THIS FILE

-----------------------

PERFORMER: auCDtect Task Manager, ver. 1.5.1RC4 build 1.5.1.5
Copyright (c) 2008-2010 y-soft. All rights reserved
http://y-soft.org

ANALYZER: auCDtect: CD records authenticity detector, version 0.8.2
Copyright (c) 2004 Oleg Berngardt. All rights reserved.
Copyright (c) 2004 Alexander Djourik. All rights reserved.

FILE: 05. Free (Instrumental Version).flac
  Size: 34699558 Hash: 25D421070ACCC9AC51EAD7DB580B54D8 Accuracy: -m0
  Conclusion: CDDA 100%
  Signature: 9B0F66A4E5CED18867DDF725508B0B73BCA81F15
FILE: 04. Friendly Fire (Miss Construction Remix).flac
  Size: 46084530 Hash: 9420AB20FCA9B6814FB018318329B4AE Accuracy: -m0
  Conclusion: CDDA 100%
  Signature: 998012E05941414B55F1C9F9CE49D76572CF5CC3
FILE: 03. Psychoburbia (NWO Mix).flac
  Size: 34064825 Hash: 13B3EAF6E041992DF3CB614120273627 Accuracy: -m0
  Conclusion: CDDA 99%
  Signature: E2BC80F3EC90794E916995DCD1A3F36D4D97780F
FILE: 02. Dance Or Die (Solitary Experimants Remix).flac
  Size: 43448980 Hash: 24059ABD25A085F35586D0802097C523 Accuracy: -m0
  Conclusion: CDDA 100%
  Signature: 692D9207226EB5434B1637C9668B4A7ACBED20A6
FILE: 01. Time Zero (Dead Line Mix).flac
  Size: 35173680 Hash: 090044769BF96B4CC6FE67F85B45E16F Accuracy: -m0
  Conclusion: CDDA 100%
  Signature: 3C9F6FCB2FB7494C6F61AD41AF6239FCD9C2AFE0



Время раздачи: вечером, ночью.

Приятного прослушивания.
Dance or Die (nnm-club).torrent
 Торрент: Платиновая раздача  Зарегистрирован
 
Скачать


 Зарегистрирован:   12 Июл 2011 08:18:03
 Размер:   3,42 GB  (
 Рейтинг:   4,3 (Голосов: 24)
 Поблагодарили:   46
 Проверка:   Оформление проверено модератором 12 Июл 2011 08:18:18
Как cкачать  ·  Как раздать  ·  Правильно оформить  ·  Поднять ратио!  

_________________
In Excelsis.
Fall Into The Sky ®
Стаж: 10 лет 5 мес.
Сообщений: 8074
Ratio: 42,457
Раздал: 18,62 TB
Поблагодарили: 30836
100%
Раздача обновлена. Альбом 2011 добавлен.

_________________
In Excelsis.
Показать сообщения:   
Начать новую тему   Ответить на тему    Торрент-трекер NNM-Club -> Electronic -> Experimental, Industrial, EBM, Dark Electro (Lossless) Часовой пояс: GMT + 3
Страница 1 из 1