Классический форум-трекер
canvas not supported
Нас вместе: 4 093 748

Папочка / Tato (1995) DVD9


 
 
RSS
Начать новую тему   Ответить на тему    Торрент-трекер NNM-Club -> Зарубежное кино -> Зарубежные Фильмы (DVD)
Автор Сообщение
SKVSM ®
Покровитель талантов
Uploader 100+
 
Стаж: 9 лет 4 мес.
Сообщений: 1083
Ratio: 297,919
Поблагодарили: 21434
100%
nnm-club.gif
Папочка / Tato (1995) DVD9
Год выпуска: 1995
Жанр: Драма
Производство: Польша

Описание:
Для родителей самым важным является благополучие их ребенка. Поэтому, когда брак разваливается на глазах и жизнь рядом уже невозможно, ребенок остается с матерью. Отец не может принять такое решение суда и хочет оставить ребенка с собой. Но перед тем как сделать это он должен доказать всем, а так же себе, что злоупотребление алкоголем, секс с малознакомыми женщинами, тяжелая работа в кинематографе, которая требует много сил и времени за пределами дома, не могут помешать мужчине стать хорошим отцом. Более того, он должен доказать, что маленькому трехлетнему созданию, которое ещё не воспринимает жизнь серьезно, любви одного отца будет достаточно для полноценной жизни…
Режиссер: Мацей Слешицки
Актеры: Богуслав Линда, Цезары Пазура, Кристина Янда, Станислав Брудны, Александр Буковски, Михал Буковски, Эльжбета Червиньска, Ева Дабровска, Рената Данцевич, Катажина Довбор, Ярослав Груда, Александра Гурская
Продолжительность: 01:50:10
Перевод: Многоголосый закадровый
Субтитры: Нет
Дополнительно: Смотрите на DVD Культовое польское кино

Дата мировой премьеры:14 декабря 1995
Видеокодек: MPEG-2
Битрейт видео: ~7548 Кбит/с
Размер кадра: PAL 4:3 (720x576) VBR
Качество видео: DVD9
Аудио:
#1: AC3, 6 ch, ~224 Кбит/с (Русский)
#2: AC3, 6 ch, ~224 Кбит/с (Украинский)
Код: выделить все
Title: Papochka.1995.DVD-9
Size: 6.53 Gb ( 6 843 126 KBytes ) - DVD-9
Enabled regions: 1, 2, 3, 4, 5, 6, 7, 8

VTS_01 :
  Play Length: 01:50:10
  Video: PAL 4:3 (720x576) VBR
  Audio:
      Russian (Dolby AC3, 6 ch)
      Ukrainian (Dolby AC3, 6 ch)

Menu Video:
      PAL 4:3 (720x576) VBR
Menu Audio:
      Not specified (Dolby AC3, 6 ch)
Menu Subtitles:
      Not specified
Menu Russian Language Unit :
      Root Menu

Audio #1: AC3, 3/2+LFE ch, 224Kbps, Delay 0 mSec
Audio #2: AC3, 3/2+LFE ch, 224Kbps, Delay 0 mSec
Код: выделить все
Общее
Полное имя                       : F:\Papochka.1995.DVD-9\VIDEO_TS\VTS_01_1.VOB
Формат                           : MPEG-PS
Размер файла                     : 1024 Мбайт
Продолжительность                : 17 м.
Общий поток                      : 8159 Кбит/сек

Видео
Идентификатор                    : 224 (0xE0)
Формат                           : MPEG Video
Версия формата                   : Version 2
Профиль формата                  : Main@Main
Параметр BVOP формата            : Да
Параметр матрицы формата         : По умолчанию
Продолжительность                : 17 м.
Вид битрейта                     : Переменный
Битрейт                          : 7548 Кбит/сек
Номинальный битрейт              : 8000 Кбит/сек
Ширина                           : 720 пикс.
Высота                           : 576 пикс.
Соотношение сторон               : 4:3
Частота кадров                   : 25,000 кадр/сек
Стандарт вещания                 : PAL
Цветовое пространство            : YUV
Подвыборка цветности             : 4:2:0
Битовая глубина                  : 8 бит
Тип развёртки                    : Чересстрочная
Порядок развёртки                : Нижнее поле первое
Метод сжатия                     : С потерями
Бит/(Пиксели*Кадры)              : 0.728
Размер потока                    : 947 Мбайт (93%)

Аудио #1
Идентификатор                    : 128 (0x80)
Формат                           : AC-3
Формат/Информация                : Audio Coding 3
Расширение режима                : CM (complete main)
Продолжительность                : 17 м.
Вид битрейта                     : Постоянный
Битрейт                          : 224 Кбит/сек
Канал(ы)                         : 6 канала(ов)
Расположение каналов             : Front: L C R, Side: L R, LFE
Частота                          : 48,0 КГц
Битовая глубина                  : 16 бит
Метод сжатия                     : С потерями
Размер потока                    : 28,1 Мбайт (3%)

Аудио #2
Идентификатор                    : 129 (0x81)
Формат                           : AC-3
Формат/Информация                : Audio Coding 3
Расширение режима                : CM (complete main)
Продолжительность                : 17 м.
Вид битрейта                     : Постоянный
Битрейт                          : 224 Кбит/сек
Канал(ы)                         : 6 канала(ов)
Расположение каналов             : Front: L C R, Side: L R, LFE
Частота                          : 48,0 КГц
Битовая глубина                  : 16 бит
Метод сжатия                     : С потерями
Размер потока                    : 28,1 Мбайт (3%)

Меню
Скриншоты:



Время раздачи: 24/7 - круглосуточно
[NNM-Club.ru] Papochka.1995.DVD-9.torrent
 Торрент: Платиновая раздача  Зарегистрирован
 
Скачать


Примагнититься
 Зарегистрирован:   17 Ноя 2019 22:13:09
 Размер:   6,53 GB  (
 Рейтинг:   4,6 (Голосов: 11)
 Поблагодарили:   54
 Проверка:   Оформление проверено модератором 17 Ноя 2019 22:53:58
Как cкачать  ·  Как раздать  ·  Правильно оформить  ·  Поднять ратио!  
NorthOn
 
Админ
Стаж: 13 лет 6 мес.
Сообщений: 13315
Ratio: 1096,266
Поблагодарили: 14452
100%
nnm-club.gif
Торрент обновлен в рамках акции Включаем DHT в древних раздачах
Теперь вам нужно его скачать и открыть в торрент-клиенте, указав в качестве места сохранения раздаваемый файл или папку.

_________________
Либо я найду путь, либо проложу его...
Показать сообщения:   
Начать новую тему   Ответить на тему    Торрент-трекер NNM-Club -> Зарубежное кино -> Зарубежные Фильмы (DVD) Часовой пояс: GMT + 3
Страница 1 из 1