Классический форум-трекер
canvas not supported
Нас вместе: 4 094 533

Псы / Psy (1992) DVD5


 
 
RSS
Начать новую тему   Ответить на тему    Торрент-трекер NNM-Club -> Зарубежное кино -> Зарубежные Фильмы (DVD)
Автор Сообщение
SKVSM ®
Покровитель талантов
Uploader 100+
 
Стаж: 9 лет 4 мес.
Сообщений: 1083
Ratio: 297,918
Поблагодарили: 21457
100%
nnm-club.gif
Псы / Psy (1992) DVD5
Производство: Польша
Жанр: Боевик, Криминал, Триллер, Драма
Описание:
Польша после падения коммунизма. У нескольких бывших сотрудников Управления безопасности - большие сложности с адаптацией к новой действительности. Теперь их начальниками в полиции стали соперники в прошлом, мягко говоря, не испытывающие к ним симпатии. Бывшие гэбэшники убеждаются, что борьба с бандитами сильно отличается от того, чем они занимались в УБ: уже в одной из первых ночных операций погибают полицейские, а преступникам удается скрыться. Лейтенант Францишек Маурэр решает отомстить убийцам...
Режиссер: Владислав Пасиковский
Актеры: Богуслав Линда, Марек Кондрат, Цезары Пазура, Януш Гайос, Агнешка Ясколькая, Збигнев Запасевич, Збигнев Бельский, Томаш Дедек, Рышард Фисхбах, Марек Фраковяк, Тадеуш Шимков, Иржи Бончак, Мачей Козловский
Продолжительность: 01:44:35
Качество видео: DVD5
Перевод: Многоголосый закадровый
Язык субтитров: Русский
Вид субтитров: Вшитые

Дополнительные материалы: Нет
Ограничения: 18+

Видеокодек: MPEG-2
Битрейт видео: ~ 4750 Кбит/с
Размер кадра: PAL 4:3 (720x576) VBR
Аудио #1: AC3, 2 ch, ~ 192 Кбит/с (Русский )
Аудио #2: AC3, 6 ch, ~ 448 Кбит/с (Польский)
Код: выделить все
Title: Psy.1992.DVD-5Size: 4.34 Gb ( 4 552 538 KBytes ) - DVD-5
Enabled regions: 1, 2, 3, 4, 5, 6, 8

VTS_01 :
  Play Length: 01:44:35
  Video: PAL 4:3 (720x576) VBR
  Audio:
      Russian (Dolby AC3, 2 ch)
      Polish (Dolby AC3, 6 ch)
  Subtitles:
      Russian

Menu Video:
      PAL 4:3 (720x576) VBR
Menu Audio:
      Not specified (Dolby AC3, 2 ch)
Menu Subtitles:
      Not specified
Menu Polish Language Unit :
      Root Menu

Audio #1: AC3, 2/0 ch, 192Kbps, Delay 0 mSec
Audio #2: AC3, 3/2+LFE ch, 448Kbps, Delay 0 mSec
Код: выделить все
Общее
Полное имя                       : F:\Psy.1992.DVD-5\VIDEO_TS\VTS_01_1.VOB
Формат                           : MPEG-PS
Размер файла                     : 1024 Мбайт
Продолжительность                : 26 м.
Общий поток                      : 5499 Кбит/сек

Видео
Идентификатор                    : 224 (0xE0)
Формат                           : MPEG Video
Версия формата                   : Version 2
Профиль формата                  : Main@Main
Параметр BVOP формата            : Да
Параметр матрицы формата         : По умолчанию
Продолжительность                : 26 м.
Вид битрейта                     : Переменный
Битрейт                          : 4750 Кбит/сек
Номинальный битрейт              : 9800 Кбит/сек
Ширина                           : 720 пикс.
Высота                           : 576 пикс.
Соотношение сторон               : 4:3
Частота кадров                   : 25,000 кадр/сек
Стандарт вещания                 : PAL
Цветовое пространство            : YUV
Подвыборка цветности             : 4:2:0
Битовая глубина                  : 8 бит
Тип развёртки                    : Чересстрочная
Порядок развёртки                : Верхнее поле первое
Метод сжатия                     : С потерями
Бит/(Пиксели*Кадры)              : 0.458
Размер потока                    : 884 Мбайт (86%)

Аудио #1
Идентификатор                    : 128 (0x80)
Формат                           : AC-3
Формат/Информация                : Audio Coding 3
Расширение режима                : CM (complete main)
Продолжительность                : 26 м.
Вид битрейта                     : Постоянный
Битрейт                          : 192 Кбит/сек
Канал(ы)                         : 2 канала(ов)
Расположение каналов             : Front: L R
Частота                          : 48,0 КГц
Битовая глубина                  : 16 бит
Метод сжатия                     : С потерями
Размер потока                    : 35,7 Мбайт (3%)

Аудио #2
Идентификатор                    : 129 (0x81)
Формат                           : AC-3
Формат/Информация                : Audio Coding 3
Расширение режима                : CM (complete main)
Продолжительность                : 26 м.
Вид битрейта                     : Постоянный
Битрейт                          : 448 Кбит/сек
Канал(ы)                         : 6 канала(ов)
Расположение каналов             : Front: L C R, Side: L R, LFE
Частота                          : 48,0 КГц
Битовая глубина                  : 16 бит
Метод сжатия                     : С потерями
Размер потока                    : 83,4 Мбайт (8%)

Текст
Идентификатор                    : 32 (0x20)
Формат                           : RLE
Формат/Информация                : Run-length encoding
Продолжительность                : 26 м.

Меню
Скриншоты:




Время раздачи: 24/7 - круглосуточно
Скачать Псы 2: Последняя кровь / Psy 2: Ostatnia krew (1994) DVD5
[NNM-Club.ru] Psy.1992.DVD-5.torrent
 Торрент: Платиновая раздача  Зарегистрирован
 
Скачать


Примагнититься
 Зарегистрирован:   03 Дек 2019 17:53:08
 Размер:   4,34 GB  (
 Рейтинг:   4,5 (Голосов: 22)
 Поблагодарили:   97
 Проверка:   Оформление проверено модератором 03 Дек 2019 18:10:43
Как cкачать  ·  Как раздать  ·  Правильно оформить  ·  Поднять ратио!  
BigSpiki
Стаж: 8 лет 3 мес.
Сообщений: 58
Ratio: 3,53
Поблагодарили: 30
ussr.gif
Хороший фильм, спасибо автору. Есть ещё вторая часть тоже очень неплохая.
SKVSM ®
Покровитель талантов
Uploader 100+
 
Стаж: 9 лет 4 мес.
Сообщений: 1083
Ratio: 297,918
Поблагодарили: 21457
100%
nnm-club.gif
Псы / Psy (1992) HDTV [H.264/1080i-LQ]
denver7979
Зам. Куратора Детского.
Модератор Видео.
RG Всё лучшее - детям!
 
Стаж: 9 лет 3 мес.
Сообщений: 8138
Ratio: 552,031
Раздал: 37,84 TB
Поблагодарили: 327516
100%
Откуда: Земля
ussr.gif
Торрент перерегистрирован на трекере в рамках акции Включаем DHT в древних раздачах (Обновлено)
Теперь вам нужно его скачать и открыть в торрент-клиенте, указав в качестве места сохранения раздаваемый файл или папку.

_________________
§ Основной FAQ & Все ПравилаНабор в RG NNM-Club Всё для детей, пап и мам
* Все вопросы в ☛ ЛС по вашим релизам ☣
обязательно со ссылками на темы, о которых идёт речь ☺
Operationalist
Стаж: 8 лет 10 мес.
Сообщений: 6
Ratio: 54,322
0%
ukraine.gif
В общем то дрек. а особенно экономия на осветителях подсказывает сразу, что смотреть не стоит
Показать сообщения:   
Начать новую тему   Ответить на тему    Торрент-трекер NNM-Club -> Зарубежное кино -> Зарубежные Фильмы (DVD) Часовой пояс: GMT + 3
Страница 1 из 1